<?xml version="1.0" standalone="no"?>
<!DOCTYPE svg PUBLIC "-//W3C//DTD SVG 1.1//EN" "http://www.w3.org/Graphics/SVG/1.1/DTD/svg11.dtd" >
<svg xmlns="http://www.w3.org/2000/svg" xmlns:xlink="http://www.w3.org/1999/xlink" version="1.1">
<metadata>
Created by FontForge 20201107 at Tue Aug  6 14:25:33 2024
 By 
Copyright 2024 Ahmed zaza
</metadata>
<defs>
<font id="GhroobArabicitf-Regular" horiz-adv-x="0" >
  <font-face 
    font-family="Ghroob Arabic itf"
    font-weight="400"
    font-stretch="normal"
    units-per-em="2048"
    panose-1="0 0 0 0 0 0 0 0 0 0"
    ascent="1638"
    descent="-410"
    bbox="-581 -1011 3441 2360"
    underline-thickness="128"
    underline-position="-256"
    unicode-range="U+000D-FEFC"
  />
<missing-glyph horiz-adv-x="601" 
 />
    <glyph glyph-name="behDotlessAr.init" unicode="&#x66e;" horiz-adv-x="624" 
d="M310 755h146v-755h-459v148l59 31h254v576z" />
    <glyph glyph-name="behDotlessAr.medi" unicode="&#x66e;" horiz-adv-x="611" 
d="M0 0v138l56 41h256v499h146v-499h213v-153l-57 -26h-614z" />
    <glyph glyph-name="behDotlessAr.fina" unicode="&#x66e;" horiz-adv-x="1756" 
d="M1454 678h146v-499h212v-153l-56 -26h-1183q-489 0 -489 428q0 31 2 63.5t7 72t8 60t10.5 65.5l8.5 51h121q-23 -161 -23 -274q0 -156 85 -221.5t299 -65.5h852v499z" />
    <glyph glyph-name="qafDotlessAr.init" unicode="&#x66f;" horiz-adv-x="983" 
d="M860 617v-617h-860v136l56 43h681v220h-614v228q0 243 94.5 376.5t263.5 133.5q174 0 276.5 -138t102.5 -382zM479 960q-122 0 -179 -87t-57 -279v-44h494v23q0 199 -64.5 293t-193.5 94z" />
    <glyph glyph-name="qafDotlessAr.medi" unicode="&#x66f;" horiz-adv-x="934" 
d="M169 540q0 170 97.5 274.5t265.5 104.5t268.5 -108t100.5 -271q0 -222 -192 -361h279v-156l-56 -23h-935v146l59 33h297q-184 130 -184 361zM778 509q0 96 -62 163.5t-184 67.5q-121 0 -183 -67.5t-62 -165.5q0 -102 64 -185t187 -120q112 37 176 123t64 184z" />
    <glyph glyph-name="qafDotlessAr.fina" unicode="&#x66f;" horiz-adv-x="1349" 
d="M1270 179h133v-143q-6 -7 -25 -19.5t-29 -16.5h-87q-20 -166 -112 -286.5t-238.5 -182t-332.5 -61.5q-281 0 -421 140t-140 385q0 137 38 335h126q-26 -216 -26 -284q0 -195 118.5 -297t327.5 -102q89 0 173.5 19t162.5 59t132.5 110.5t71.5 164.5h-610v264
q0 243 94.5 376t264.5 133q175 0 277 -140t102 -380v-74zM653 177h496v33q0 177 -66.5 280.5t-201.5 103.5q-118 0 -173 -86.5t-55 -277.5v-53z" />
    <glyph glyph-name="fehDotlessAr.init" unicode="&#x6a1;" horiz-adv-x="983" 
d="M860 617v-617h-860v136l56 43h681v220h-614v228q0 243 94.5 376.5t263.5 133.5q174 0 276.5 -138t102.5 -382zM479 960q-122 0 -179 -87t-57 -279v-44h494v23q0 199 -64.5 293t-193.5 94z" />
    <glyph glyph-name="fehDotlessAr.medi" unicode="&#x6a1;" horiz-adv-x="934" 
d="M169 540q0 170 97.5 274.5t265.5 104.5t268.5 -108t100.5 -271q0 -222 -192 -361h279v-156l-56 -23h-935v146l59 33h297q-184 130 -184 361zM778 509q0 96 -62 163.5t-184 67.5q-121 0 -183 -67.5t-62 -165.5q0 -102 64 -185t187 -120q112 37 176 123t64 184z" />
    <glyph glyph-name="fehDotlessAr.fina" unicode="&#x6a1;" horiz-adv-x="1850" 
d="M120 740h121q-23 -161 -23 -274q0 -156 85 -221.5t299 -65.5h670q-184 130 -184 361q0 170 97.5 274.5t266.5 104.5q168 0 268 -107.5t100 -271.5q0 -222 -192 -361h279v-156l-56 -23h-1278q-489 0 -489 428q0 31 2 63.5t7 72t8 60t10.5 65.5zM1697 509q0 96 -61.5 163.5
t-183.5 67.5q-121 0 -183.5 -67.5t-62.5 -165.5q0 -102 64 -185t187 -120q112 37 176 123t64 184z" />
    <glyph glyph-name="noonghunnaAr.init" unicode="&#x6ba;" horiz-adv-x="624" 
d="M310 755h146v-755h-459v148l59 31h254v576z" />
    <glyph glyph-name="noonghunnaAr.medi" unicode="&#x6ba;" horiz-adv-x="611" 
d="M0 0v138l56 41h256v499h146v-499h213v-153l-57 -26h-614z" />
    <glyph glyph-name="uniFB57" unicode="&#x67e;" horiz-adv-x="1756" arabic-form="final" 
d="M1454 678h146v-499h212v-153l-56 -26h-1183q-489 0 -489 428q0 31 2 63.5t7 72t8 60t10.5 65.5l8.5 51h121q-23 -161 -23 -274q0 -156 85 -221.5t299 -65.5h852v499zM614 -353l131 130l131 -130l128 130l130 -130l-130 -128l-128 128l-131 -128zM748 -594l125 128
l125 -128l-125 -125z" />
    <glyph glyph-name="uniFB58" unicode="&#x67e;" horiz-adv-x="624" arabic-form="initial" 
d="M310 755h146v-755h-459v148l59 31h254v576zM-44 -353l131 130l131 -130l128 130l130 -130l-130 -128l-128 128l-131 -128zM92 -594l126 128l125 -128l-125 -125z" />
    <glyph glyph-name="uniFB59" unicode="&#x67e;" horiz-adv-x="611" arabic-form="medial" 
d="M0 0v138l56 41h256v499h146v-499h213v-153l-57 -26h-614zM20 -353l131 130l131 -130l128 130l130 -130l-130 -128l-128 128l-131 -128zM154 -594l125 128l125 -128l-125 -125z" />
    <glyph glyph-name="uniFB6B" unicode="&#x6a4;" horiz-adv-x="1850" arabic-form="final" 
d="M120 740h121q-23 -161 -23 -274q0 -156 85 -221.5t299 -65.5h670q-184 130 -184 361q0 170 97.5 274.5t266.5 104.5q168 0 268 -107.5t100 -271.5q0 -222 -192 -361h279v-156l-56 -23h-1278q-489 0 -489 428q0 31 2 63.5t7 72t8 60t10.5 65.5zM1697 509q0 96 -61.5 163.5
t-183.5 67.5q-121 0 -183.5 -67.5t-62.5 -165.5q0 -102 64 -185t187 -120q112 37 176 123t64 184zM1324 1142l-131 130l131 128l130 -128l128 128l131 -128l-131 -130l-128 130zM1452 1385l-126 128l126 125l125 -125z" />
    <glyph glyph-name="uniFB6C" unicode="&#x6a4;" horiz-adv-x="983" arabic-form="initial" 
d="M860 0h-860v136l56 43h681v220h-614v228q0 243 94.5 376.5t263.5 133.5q174 0 276.5 -138t102.5 -382v-617zM479 960q-122 0 -179 -87t-57 -279v-44h494v23q0 199 -64.5 293t-193.5 94zM348 1359l-130 131l130 128l131 -128l128 128l130 -128l-130 -131l-128 131z
M479 1603l-126 128l126 125l125 -125z" />
    <glyph glyph-name="uniFB6D" unicode="&#x6a4;" horiz-adv-x="934" arabic-form="medial" 
d="M169 540q0 170 97.5 274.5t265.5 104.5t268.5 -108t100.5 -271q0 -222 -192 -361h279v-156l-56 -23h-935v146l59 33h297q-184 130 -184 361zM778 509q0 96 -62 163.5t-184 67.5q-121 0 -183 -67.5t-62 -165.5q0 -102 64 -185t187 -120q112 37 176 123t64 184zM663 1142
l-131 130l131 128l131 -128zM404 1144l-130 131l130 128l131 -128zM535 1388l-125 128l125 125l125 -125z" />
    <glyph glyph-name="uniFB7B" unicode="&#x686;" horiz-adv-x="1226" arabic-form="final" 
d="M681 -346q235 0 481 54v-148q-285 -85 -530 -85q-149 0 -263.5 36.5t-185 101.5t-106.5 150t-36 186q0 452 722 686q-54 8 -136 25t-145 26.5t-121 9.5q-146 0 -302 -74v149q128 99 287 99q65 0 141.5 -16.5t137.5 -37t150 -37t177 -16.5h187v-149q-31 -5 -179 -38
q-8 -51 -12 -85.5t-3 -80t11.5 -75.5t33.5 -62t60.5 -51t96 -31t136.5 -12v-153l-59 -26q-105 0 -181.5 24.5t-122 71t-70 113t-25.5 149.5t12 182q-100 -32 -189.5 -70.5t-179.5 -92.5t-154.5 -114t-104.5 -138t-40 -161q0 -67 26.5 -121.5t84.5 -97.5t159.5 -67t241.5 -24
zM607 84l89 93l90 -93l-90 -89zM425 84l90 93l89 -93l-89 -89zM520 -82l87 87l87 -87l-87 -90z" />
    <glyph glyph-name="uniFB7C" unicode="&#x686;" horiz-adv-x="1210" arabic-form="initial" 
d="M0 0v131l56 48q145 0 346.5 49t398.5 120q-36 27 -87.5 75t-92.5 83.5t-94.5 71.5t-120 55.5t-142.5 19.5q-110 0 -190 -21v146q34 17 51.5 24.5t64 18.5t94.5 11q77 0 147.5 -23.5t124.5 -61.5t104.5 -83.5t98 -91t94.5 -83.5t103.5 -61.5t116.5 -23.5h97v-143h-282
q-197 -107 -433 -184t-455 -77zM276 -353l131 130l131 -130l128 130l130 -130l-130 -128l-128 128l-131 -128zM412 -594l126 128l125 -128l-125 -125z" />
    <glyph glyph-name="uniFB7D" unicode="&#x686;" horiz-adv-x="1118" arabic-form="medial" 
d="M-3 0v131l59 48h238q335 0 518 59q-13 16 -31 44l-138 197q-122 176 -356 176q-53 0 -200 -20v148q127 52 238 52q153 0 265.5 -74t205.5 -213l105 -159q79 -121 134.5 -165.5t139.5 -44.5v-123q0 -56 -56 -56q-67 0 -122.5 35.5t-123.5 120.5q-103 -79 -237.5 -117.5
t-333.5 -38.5h-305zM438 -353l130 130l131 -130l-131 -128zM177 -353l130 130l131 -130l-131 -128zM312 -594l126 128l125 -128l-125 -125z" />
    <glyph glyph-name="uniFB9F" unicode="&#x6ba;" horiz-adv-x="1305" arabic-form="final" 
d="M996 614h143q21 -174 21 -309v-126h202v-148l-56 -31h-154q-33 -205 -205 -329t-412 -124q-247 0 -382 137t-135 390q0 151 38 333h126q-26 -191 -26 -279q0 -195 107 -297t293 -102q107 0 211.5 30.5t175.5 88.5t71 126v305q0 105 -18 335z" />
    <glyph glyph-name="uniFBE8" unicode="&#x649;" horiz-adv-x="624" arabic-form="initial" 
d="M310 755h146v-755h-459v148l59 31h254v576z" />
    <glyph glyph-name="uniFBE9" unicode="&#x649;" horiz-adv-x="611" arabic-form="medial" 
d="M0 0v138l56 41h256v499h146v-499h213v-153l-57 -26h-614z" />
    <glyph glyph-name="uniFDF2" unicode="&#xfdf2;" horiz-adv-x="3125" arabic-form="isolated" 
 />
    <glyph glyph-name="uniFE82" unicode="&#x622;" horiz-adv-x="414" arabic-form="final" 
d="M125 1283h146v-937q0 -55 14 -89.5t44 -51t62 -21.5t83 -5v-153l-57 -26q-160 0 -226 82.5t-66 237.5v963zM430 1597v-105h-302q-26 0 -55.5 -9t-46.5 -17t-54 -27l-54 48q39 35 65 54.5t69 37.5t86 18h292z" />
    <glyph glyph-name="uniFE84" unicode="&#x623;" horiz-adv-x="414" arabic-form="final" 
d="M125 1283h146v-937q0 -55 14 -89.5t44 -51t62 -21.5t83 -5v-153l-57 -26q-160 0 -226 82.5t-66 237.5v963zM317 1807v-92q-41 10 -97 10q-57 0 -90 -23t-33 -56q0 -21 13.5 -41.5t48 -40t92 -25t146.5 1.5v-89l-425 -52v90l133 15q-79 47 -79 149q0 74 47.5 120t138.5 46
q62 0 105 -13z" />
    <glyph glyph-name="uniFE86" unicode="&#x624;" horiz-adv-x="934" arabic-form="final" 
d="M863 179h128v-143q-6 -7 -25 -19.5t-29 -16.5h-77q-9 -129 -56 -228.5t-119.5 -159t-159 -89.5t-182.5 -30q-35 0 -65.5 4t-55 11t-39.5 13t-34 15t-24 11v146q88 -26 187 -26q86 0 161.5 20t136.5 59.5t96.5 105t35.5 148.5h-617v264q0 243 94.5 376t264.5 133
q175 0 277 -140t102 -380v-74zM246 177h496v33q0 177 -66.5 280.5t-201.5 103.5q-118 0 -173 -86.5t-55 -277.5v-53zM614 1295v-92q-41 10 -97 10q-57 0 -90 -23t-33 -56q0 -21 13.5 -41.5t48 -40t92.5 -25t146 1.5v-89l-425 -52v90l133 15q-79 47 -79 149q0 74 47.5 120
t138.5 46q62 0 105 -13z" />
    <glyph glyph-name="uniFE88" unicode="&#x625;" horiz-adv-x="417" arabic-form="final" 
d="M125 1444h146v-1098q0 -55 14.5 -89.5t45 -51t62.5 -21.5t81 -5v-153l-57 -26q-159 0 -225.5 82.5t-66.5 237.5v1124zM307 -151v-95q-54 13 -97 13q-57 0 -90 -23t-33 -56q0 -22 13.5 -42.5t48 -40t92 -25t146.5 2.5v-90l-425 -51v90l133 15q-80 47 -80 148
q0 76 50 121.5t145 45.5q55 0 97 -13z" />
    <glyph glyph-name="uniFE8A" unicode="&#x626;" horiz-adv-x="1277" arabic-form="final" 
d="M788 282l103 140q7 -6 50.5 -42t52 -42.5t45.5 -35.5t50.5 -36t46.5 -27.5t53 -26.5t50 -16.5t58.5 -13.5t59.5 -3v-112l-41 -36q54 -75 54 -167q0 -127 -103.5 -223t-267 -143.5t-356.5 -47.5q-142 0 -251 29t-178.5 79t-113.5 125t-62 159.5t-18 188.5q0 194 39 361
l123 -11q-23 -172 -23 -322q0 -51 5 -93t18.5 -87t36 -80t60.5 -67.5t89 -54t123 -34t162 -12.5q95 0 196 13.5t191.5 38.5t148.5 66.5t58 91.5q0 60 -86 140t-373 301zM253 916v-92q-45 11 -97 11q-57 0 -90 -23.5t-33 -56.5q0 -21 13.5 -41.5t48 -40t92 -25t146.5 1.5v-89
l-425 -52v90l133 15q-82 49 -82 149q0 74 49 120t140 46q62 0 105 -13z" />
    <glyph glyph-name="uniFE8B" unicode="&#x626;" horiz-adv-x="624" arabic-form="initial" 
d="M310 755h146v-755h-459v148l59 31h254v576zM507 1283v-93q-45 11 -97 11q-57 0 -90 -23.5t-33 -56.5q0 -21 13.5 -41.5t47.5 -40t92 -25t146 1.5v-89l-425 -51v89l133 15q-79 47 -79 149q0 74 48 120t139 46q65 0 105 -12z" />
    <glyph glyph-name="uniFE8C" unicode="&#x626;" horiz-adv-x="611" arabic-form="medial" 
d="M0 0v138l56 41h256v499h146v-499h213v-153l-57 -26h-614zM509 1203v-92q-41 10 -97 10q-57 0 -90 -23t-33 -56q0 -21 13.5 -41.5t48 -40t92 -25t146.5 1.5v-90l-425 -51v90l133 15q-79 47 -79 149q0 74 47.5 120t138.5 46q62 0 105 -13z" />
    <glyph glyph-name="uniFE8E" unicode="&#x627;" horiz-adv-x="417" arabic-form="final" 
d="M125 1444h146v-1098q0 -55 14.5 -89.5t45 -51t62.5 -21.5t81 -5v-153l-57 -26q-159 0 -225.5 82.5t-66.5 237.5v1124z" />
    <glyph glyph-name="uniFE90" unicode="&#x628;" horiz-adv-x="1756" arabic-form="final" 
d="M1454 678h146v-499h212v-153l-56 -26h-1183q-489 0 -489 428q0 31 2 63.5t7 72t8 60t10.5 65.5l8.5 51h121q-23 -161 -23 -274q0 -156 85 -221.5t299 -65.5h852v499zM870 -471l-130 131l130 130l131 -130z" />
    <glyph glyph-name="uniFE91" unicode="&#x628;" horiz-adv-x="624" arabic-form="initial" 
d="M310 755h146v-755h-459v148l59 31h254v576zM215 -471l-131 131l131 130l131 -130z" />
    <glyph glyph-name="uniFE92" unicode="&#x628;" horiz-adv-x="611" arabic-form="medial" 
d="M0 0v138l56 41h256v499h146v-499h213v-153l-57 -26h-614zM276 -471l-130 131l130 130l131 -130z" />
    <glyph glyph-name="uniFE94" unicode="&#x629;" horiz-adv-x="1031" arabic-form="final" 
d="M205 394q0 -79 58.5 -121.5t158.5 -42.5q142 0 302 87v407l-256 -74q-45 -13 -86.5 -33t-83.5 -50.5t-67.5 -75.5t-25.5 -97zM724 1044h141v-680q0 -62 14.5 -100t47 -56t67 -23.5t91.5 -5.5v-123q-2 -27 -17 -41.5t-39 -14.5q-238 0 -292 197q-72 -66 -162.5 -106
t-185.5 -40q-135 0 -221 83t-86 235q0 156 103.5 264t275.5 166l263 87v158zM294 1193l-130 131l130 128l131 -128zM553 1190l-131 131l131 128l131 -128z" />
    <glyph glyph-name="uniFE96" unicode="&#x62a;" horiz-adv-x="1756" arabic-form="final" 
d="M1454 678h146v-499h212v-153l-56 -26h-1183q-489 0 -489 428q0 31 2 63.5t7 72t8 60t10.5 65.5l8.5 51h121q-23 -161 -23 -274q0 -156 85 -221.5t299 -65.5h852v499zM998 876l-130 130l130 128l131 -128zM740 878l-131 131l131 128l130 -128z" />
    <glyph glyph-name="uniFE97" unicode="&#x62a;" horiz-adv-x="624" arabic-form="initial" 
d="M310 755h146v-755h-459v148l59 31h254v576zM251 980l-131 131l131 128l130 -128zM509 978l-130 130l130 128l131 -128z" />
    <glyph glyph-name="uniFE98" unicode="&#x62a;" horiz-adv-x="611" arabic-form="medial" 
d="M0 0v138l56 41h256v499h146v-499h213v-153l-57 -26h-614zM512 899l-131 130l131 128l131 -128zM253 901l-130 131l130 128l131 -128z" />
    <glyph glyph-name="uniFE9A" unicode="&#x62b;" horiz-adv-x="1756" arabic-form="final" 
d="M1454 678h146v-499h212v-153l-56 -26h-1183q-489 0 -489 428q0 31 2 63.5t7 72t8 60t10.5 65.5l8.5 51h121q-23 -161 -23 -274q0 -156 85 -221.5t299 -65.5h852v499zM1001 876l-131 130l131 128l131 -128zM742 878l-130 131l130 128l131 -128zM873 1121l-125 128l125 126
l125 -126z" />
    <glyph glyph-name="uniFE9B" unicode="&#x62b;" horiz-adv-x="624" arabic-form="initial" 
d="M310 755h146v-755h-459v148l59 31h254v576zM253 980l-130 131l130 128l131 -128zM384 1221l-125 128l125 126l125 -126zM512 978l-131 130l131 128l131 -128z" />
    <glyph glyph-name="uniFE9C" unicode="&#x62b;" horiz-adv-x="611" arabic-form="medial" 
d="M0 0v138l56 41h256v499h146v-499h213v-153l-57 -26h-614zM515 899l-131 130l131 128l130 -128zM256 901l-131 131l131 128l131 -128zM387 1142l-126 128l126 125l125 -125z" />
    <glyph glyph-name="uniFE9E" unicode="&#x62c;" horiz-adv-x="1226" arabic-form="final" 
d="M681 -346q235 0 481 54v-148q-285 -85 -530 -85q-149 0 -263.5 36.5t-185 101.5t-106.5 150t-36 186q0 452 722 686q-54 8 -136 25t-145 26.5t-121 9.5q-146 0 -302 -74v149q128 99 287 99q65 0 141.5 -16.5t137.5 -37t150 -37t177 -16.5h187v-149q-31 -5 -179 -38
q-8 -51 -12 -85.5t-3 -80t11.5 -75.5t33.5 -62t60.5 -51t96 -31t136.5 -12v-153l-59 -26q-105 0 -181.5 24.5t-122 71t-70 113t-25.5 149.5t12 182q-100 -32 -189.5 -70.5t-179.5 -92.5t-154.5 -114t-104.5 -138t-40 -161q0 -67 26.5 -121.5t84.5 -97.5t159.5 -67t241.5 -24
zM604 -74l-133 133l133 133l133 -133z" />
    <glyph glyph-name="uniFE9F" unicode="&#x62c;" horiz-adv-x="1210" arabic-form="initial" 
d="M0 0v131l56 48q145 0 346.5 49t398.5 120q-36 27 -87.5 75t-92.5 83.5t-94.5 71.5t-120 55.5t-142.5 19.5q-110 0 -190 -21v146q34 17 51.5 24.5t64 18.5t94.5 11q77 0 147.5 -23.5t124.5 -61.5t104.5 -83.5t98 -91t94.5 -83.5t103.5 -61.5t116.5 -23.5h97v-143h-282
q-197 -107 -433 -184t-455 -77zM535 -471l-131 131l131 130l131 -130z" />
    <glyph glyph-name="uniFEA0" unicode="&#x62c;" horiz-adv-x="1118" arabic-form="medial" 
d="M-3 0v131l59 48h238q335 0 518 59q-13 16 -31 44l-138 197q-122 176 -356 176q-53 0 -200 -20v148q127 52 238 52q153 0 265.5 -74t205.5 -213l105 -159q79 -121 134.5 -165.5t139.5 -44.5v-123q0 -56 -56 -56q-67 0 -122.5 35.5t-123.5 120.5q-103 -79 -237.5 -117.5
t-333.5 -38.5h-305zM435 -471l-130 131l130 130l131 -130z" />
    <glyph glyph-name="uniFEA2" unicode="&#x62d;" horiz-adv-x="1226" arabic-form="final" 
d="M681 -346q235 0 481 54v-148q-285 -85 -530 -85q-149 0 -263.5 36.5t-185 101.5t-106.5 150t-36 186q0 452 722 686q-54 8 -136 25t-145 26.5t-121 9.5q-146 0 -302 -74v149q128 99 287 99q65 0 141.5 -16.5t137.5 -37t150 -37t177 -16.5h187v-149q-31 -5 -179 -38
q-8 -51 -12 -85.5t-3 -80t11.5 -75.5t33.5 -62t60.5 -51t96 -31t136.5 -12v-153l-59 -26q-105 0 -181.5 24.5t-122 71t-70 113t-25.5 149.5t12 182q-100 -32 -189.5 -70.5t-179.5 -92.5t-154.5 -114t-104.5 -138t-40 -161q0 -67 26.5 -121.5t84.5 -97.5t159.5 -67t241.5 -24
z" />
    <glyph glyph-name="uniFEA3" unicode="&#x62d;" horiz-adv-x="1210" arabic-form="initial" 
d="M0 0v131l56 48q145 0 346.5 49t398.5 120q-36 27 -87.5 75t-92.5 83.5t-94.5 71.5t-120 55.5t-142.5 19.5q-110 0 -190 -21v146q34 17 51.5 24.5t64 18.5t94.5 11q77 0 147.5 -23.5t124.5 -61.5t104.5 -83.5t98 -91t94.5 -83.5t103.5 -61.5t116.5 -23.5h97v-143h-282
q-197 -107 -433 -184t-455 -77z" />
    <glyph glyph-name="uniFEA4" unicode="&#x62d;" horiz-adv-x="1118" arabic-form="medial" 
d="M-3 0v131l59 48h238q335 0 518 59q-13 16 -31 44l-138 197q-122 176 -356 176q-53 0 -200 -20v148q127 52 238 52q153 0 265.5 -74t205.5 -213l105 -159q79 -121 134.5 -165.5t139.5 -44.5v-123q0 -56 -56 -56q-67 0 -122.5 35.5t-123.5 120.5q-103 -79 -237.5 -117.5
t-333.5 -38.5h-305z" />
    <glyph glyph-name="uniFEA6" unicode="&#x62e;" horiz-adv-x="1226" arabic-form="final" 
d="M681 -346q235 0 481 54v-148q-285 -85 -530 -85q-149 0 -263.5 36.5t-185 101.5t-106.5 150t-36 186q0 452 722 686q-54 8 -136 25t-145 26.5t-121 9.5q-146 0 -302 -74v149q128 99 287 99q65 0 141.5 -16.5t137.5 -37t150 -37t177 -16.5h187v-149q-31 -5 -179 -38
q-8 -51 -12 -85.5t-3 -80t11.5 -75.5t33.5 -62t60.5 -51t96 -31t136.5 -12v-153l-59 -26q-105 0 -181.5 24.5t-122 71t-70 113t-25.5 149.5t12 182q-100 -32 -189.5 -70.5t-179.5 -92.5t-154.5 -114t-104.5 -138t-40 -161q0 -67 26.5 -121.5t84.5 -97.5t159.5 -67t241.5 -24
zM520 1083l-131 130l131 134l130 -134z" />
    <glyph glyph-name="uniFEA7" unicode="&#x62e;" horiz-adv-x="1210" arabic-form="initial" 
d="M0 0v131l56 48q145 0 346.5 49t398.5 120q-36 27 -87.5 75t-92.5 83.5t-94.5 71.5t-120 55.5t-142.5 19.5q-110 0 -190 -21v146q34 17 51.5 24.5t64 18.5t94.5 11q77 0 147.5 -23.5t124.5 -61.5t104.5 -83.5t98 -91t94.5 -83.5t103.5 -61.5t116.5 -23.5h97v-143h-282
q-197 -107 -433 -184t-455 -77zM271 1050l-130 130l130 133l131 -133z" />
    <glyph glyph-name="uniFEA8" unicode="&#x62e;" horiz-adv-x="1118" arabic-form="medial" 
d="M-3 0v131l59 48h238q335 0 518 59q-13 16 -31 44l-138 197q-122 176 -356 176q-53 0 -200 -20v148q127 52 238 52q153 0 265.5 -74t205.5 -213l105 -159q79 -121 134.5 -165.5t139.5 -44.5v-123q0 -56 -56 -56q-67 0 -122.5 35.5t-123.5 120.5q-103 -79 -237.5 -117.5
t-333.5 -38.5h-305zM317 1047l-130 131l130 133l131 -133z" />
    <glyph glyph-name="uniFEAA" unicode="&#x62f;" horiz-adv-x="906" arabic-form="final" 
d="M261 814l56 143q66 -13 136 -46l51 -28q277 -139 277 -471v-233h184v-138q0 -18 -18 -29.5t-38 -11.5h-620q-122 0 -248 26v153h612q0 59 -1 96t-4 86t-9.5 81t-17 71.5t-27.5 67.5t-40.5 58t-55.5 54.5t-73 46.5l-38 20q-64 34 -126 54z" />
    <glyph glyph-name="uniFEAC" unicode="&#x630;" horiz-adv-x="906" arabic-form="final" 
d="M261 814l56 143q66 -13 136 -46l51 -28q277 -139 277 -471v-233h184v-138q0 -18 -18 -29.5t-38 -11.5h-620q-122 0 -248 26v153h612q0 59 -1 96t-4 86t-9.5 81t-17 71.5t-27.5 67.5t-40.5 58t-55.5 54.5t-73 46.5l-38 20q-64 34 -126 54zM376 1188l-130 130l130 134
l131 -134z" />
    <glyph glyph-name="uniFEAE" unicode="&#x631;" horiz-adv-x="494" arabic-form="final" 
d="M-202 -433v149q87 -21 184 -21q56 0 91.5 10.5t65 40.5t43 90t13.5 154v650h145v-461h210v-153l-56 -26h-156q-2 -106 -20.5 -190.5t-56.5 -150t-101.5 -101.5t-149.5 -37q-64 0 -125.5 16t-86.5 30z" />
    <glyph glyph-name="uniFEB0" unicode="&#x632;" horiz-adv-x="494" arabic-form="final" 
d="M-202 -433v149q87 -21 184 -21q56 0 91.5 10.5t65 40.5t43 90t13.5 154v650h145v-461h210v-153l-56 -26h-156q-2 -106 -20.5 -190.5t-56.5 -150t-101.5 -101.5t-149.5 -37q-64 0 -125.5 16t-86.5 30zM271 850l-130 130l130 134l131 -134z" />
    <glyph glyph-name="uniFEB2" unicode="&#x633;" horiz-adv-x="2365" arabic-form="final" 
d="M1577 246l100 315h143l-92 -313q43 -34 88.5 -51.5t113.5 -17.5h133v499h146v-499h213v-153l-57 -26h-432q-88 0 -156 32.5t-108 82.5q-86 -115 -258 -115h-254q-9 -150 -94 -266t-223 -177t-305 -61q-247 0 -382 137t-135 390q0 151 38 333h126q-26 -191 -26 -279
q0 -195 107.5 -297.5t292.5 -102.5q106 0 211 31t176 89t71 126v305q0 106 -18 335h143q21 -174 21 -310v-74h325q69 0 92 67z" />
    <glyph glyph-name="uniFEB3" unicode="&#x633;" horiz-adv-x="1648" arabic-form="initial" 
d="M392 553h148l-136 -287q52 -33 132 -60t165 -27q60 0 103 22.5t64 85.5l84 266h139l-90 -294q40 -40 83.5 -60t113.5 -20h138v515h144v-694h-264q-164 0 -256 148q-79 -148 -264 -148q-98 0 -193 38t-168 98q-53 -80 -127.5 -108t-207.5 -28v133l56 46q80 0 125 18t72 72
z" />
    <glyph glyph-name="uniFEB4" unicode="&#x633;" horiz-adv-x="1638" arabic-form="medial" 
d="M392 553h148l-136 -287q56 -33 136.5 -60t163.5 -27q60 0 102.5 22.5t63.5 85.5l85 266h138l-92 -305q43 -34 88.5 -51.5t113.5 -17.5h133v499h146v-499h213v-153l-57 -26h-432q-88 0 -156 32.5t-108 82.5q-84 -115 -243 -115q-99 0 -195.5 38.5t-165.5 99.5
q-53 -81 -128.5 -109.5t-209.5 -28.5v133l56 46q80 0 125 18t72 72z" />
    <glyph glyph-name="uniFEB6" unicode="&#x634;" horiz-adv-x="2365" arabic-form="final" 
d="M1577 246l100 315h143l-92 -313q43 -34 88.5 -51.5t113.5 -17.5h133v499h146v-499h213v-153l-57 -26h-432q-88 0 -156 32.5t-108 82.5q-86 -115 -258 -115h-254q-9 -150 -94 -266t-223 -177t-305 -61q-247 0 -382 137t-135 390q0 151 38 333h126q-26 -191 -26 -279
q0 -195 107.5 -297.5t292.5 -102.5q106 0 211 31t176 89t71 126v305q0 106 -18 335h143q21 -174 21 -310v-74h325q69 0 92 67zM1521 788l-131 131l131 128l130 -128zM1779 786l-130 130l130 128l131 -128zM1651 1029l-125 128l125 126l126 -126z" />
    <glyph glyph-name="uniFEB7" unicode="&#x634;" horiz-adv-x="1648" arabic-form="initial" 
d="M392 553h148l-136 -287q52 -33 132 -60t165 -27q60 0 103 22.5t64 85.5l84 266h139l-90 -294q40 -40 83.5 -60t113.5 -20h138v515h144v-694h-264q-164 0 -256 148q-79 -148 -264 -148q-98 0 -193 38t-168 98q-53 -80 -127.5 -108t-207.5 -28v133l56 46q80 0 125 18t72 72
zM796 781l-130 130l130 128l131 -128zM1055 778l-131 131l131 128l130 -128zM927 1021l-126 128l126 126l125 -126z" />
    <glyph glyph-name="uniFEB8" unicode="&#x634;" horiz-adv-x="1638" arabic-form="medial" 
d="M392 553h148l-136 -287q56 -33 136.5 -60t163.5 -27q60 0 102.5 22.5t63.5 85.5l85 266h138l-92 -305q43 -34 88.5 -51.5t113.5 -17.5h133v499h146v-499h213v-153l-57 -26h-432q-88 0 -156 32.5t-108 82.5q-84 -115 -243 -115q-99 0 -195.5 38.5t-165.5 99.5
q-53 -81 -128.5 -109.5t-209.5 -28.5v133l56 46q80 0 125 18t72 72zM778 781l-130 130l130 128l131 -128zM1037 778l-131 131l131 128l130 -128zM906 1021l-125 128l125 126l126 -126z" />
    <glyph glyph-name="uniFEBA" unicode="&#x635;" horiz-adv-x="2575" arabic-form="final" 
d="M2501 179h128v-153q-3 -5 -23.5 -14t-32.5 -12h-1416q-9 -150 -94 -266t-223 -177t-305 -61q-247 0 -382 137t-135 390q0 151 38 333h126q-26 -191 -26 -279q0 -195 107.5 -297.5t292.5 -102.5q106 0 211 31t176 89t71 126v305q0 106 -18 335h143q21 -174 21 -310v-74
h174q195 329 376 491t384 162q191 0 299 -138.5t108 -399.5v-115zM1462 179h919v108q0 54 -10.5 105t-35 99.5t-60.5 84.5t-90.5 57.5t-121.5 21.5q-53 0 -104.5 -14.5t-95 -37t-90.5 -61.5t-82.5 -74.5t-80 -90.5t-74.5 -95.5t-74 -102.5z" />
    <glyph glyph-name="uniFEBB" unicode="&#x635;" horiz-adv-x="1912" arabic-form="initial" 
d="M0 0v138l56 41h256v412h146v-412h164q195 329 376 491t384 162q191 0 299 -138.5t108 -399.5v-294h-1789zM750 179h919v108q0 69 -18 131.5t-54 117t-99 87t-146 32.5q-53 0 -104.5 -14.5t-95 -37t-90.5 -61.5t-83 -75t-80.5 -90.5t-74.5 -95.5t-74 -102z" />
    <glyph glyph-name="uniFEBC" unicode="&#x635;" horiz-adv-x="1866" arabic-form="medial" 
d="M1789 179h131v-153q-3 -5 -23.5 -14t-32.5 -12h-1864v138l56 41h256v412h146v-412h164q195 329 376 491t384 162q191 0 299 -138.5t108 -399.5v-115zM750 179h919v108q0 69 -18 131.5t-54 117t-99 87t-146 32.5q-53 0 -104.5 -14.5t-95 -37t-90.5 -61.5t-83 -75
t-80.5 -90.5t-74.5 -95.5t-74 -102z" />
    <glyph glyph-name="uniFEBE" unicode="&#x636;" horiz-adv-x="2575" arabic-form="final" 
d="M2501 179h128v-153q-3 -5 -23.5 -14t-32.5 -12h-1416q-9 -150 -94 -266t-223 -177t-305 -61q-247 0 -382 137t-135 390q0 151 38 333h126q-26 -191 -26 -279q0 -195 107.5 -297.5t292.5 -102.5q106 0 211 31t176 89t71 126v305q0 106 -18 335h143q21 -174 21 -310v-74
h174q195 329 376 491t384 162q191 0 299 -138.5t108 -399.5v-115zM1462 179h919v108q0 54 -10.5 105t-35 99.5t-60.5 84.5t-90.5 57.5t-121.5 21.5q-53 0 -104.5 -14.5t-95 -37t-90.5 -61.5t-82.5 -74.5t-80 -90.5t-74.5 -95.5t-74 -102.5zM1436 847l-130 131l130 133
l131 -133z" />
    <glyph glyph-name="uniFEBF" unicode="&#x636;" horiz-adv-x="1912" arabic-form="initial" 
d="M0 0v138l56 41h256v412h146v-412h164q195 329 376 491t384 162q191 0 299 -138.5t108 -399.5v-294h-1789zM750 179h919v108q0 69 -18 131.5t-54 117t-99 87t-146 32.5q-53 0 -104.5 -14.5t-95 -37t-90.5 -61.5t-83 -75t-80.5 -90.5t-74.5 -95.5t-74 -102zM722 845
l-131 130l131 133l130 -133z" />
    <glyph glyph-name="uniFEC0" unicode="&#x636;" horiz-adv-x="1866" arabic-form="medial" 
d="M1789 179h131v-153q-3 -5 -23.5 -14t-32.5 -12h-1864v138l56 41h256v412h146v-412h164q195 329 376 491t384 162q191 0 299 -138.5t108 -399.5v-115zM750 179h919v108q0 69 -18 131.5t-54 117t-99 87t-146 32.5q-53 0 -104.5 -14.5t-95 -37t-90.5 -61.5t-83 -75
t-80.5 -90.5t-74.5 -95.5t-74 -102zM722 847l-131 131l131 133l130 -133z" />
    <glyph glyph-name="uniFEC2" unicode="&#x637;" horiz-adv-x="1633" arabic-form="final" 
d="M1559 179h131v-153q-3 -5 -24 -14t-33 -12h-1195q-254 0 -397 31v148h351q64 109 74 123v1132h146v-832q0 -55 -10 -110q134 170 268 255t282 85q191 0 299 -138.5t108 -399.5v-115zM520 179h919v108q0 54 -10.5 105t-35 99.5t-60.5 84.5t-90.5 57.5t-121.5 21.5
q-53 0 -104.5 -14.5t-95 -37t-90.5 -61.5t-82.5 -74.5t-80 -90.5t-74.5 -95.5t-74 -102.5z" />
    <glyph glyph-name="uniFEC3" unicode="&#x637;" horiz-adv-x="1500" arabic-form="initial" 
d="M289 1434h146v-832q0 -45 -7 -98q133 164 264.5 246t275.5 82q191 0 299 -138.5t108 -399.5v-294h-1375v131l56 48h151q40 70 82 136v1119zM335 179h919v108q0 69 -18 131.5t-54 117t-99 87t-146 32.5q-53 0 -104.5 -14.5t-95 -37t-90.5 -61.5t-83 -75t-80.5 -90.5
t-74.5 -95.5t-74 -102z" />
    <glyph glyph-name="uniFEC4" unicode="&#x637;" horiz-adv-x="1451" arabic-form="medial" 
d="M289 1434h146v-832q0 -45 -7 -98q133 164 264.5 246t275.5 82q191 0 299 -138.5t108 -399.5v-115h133v-153q-3 -5 -23.5 -14t-32.5 -12h-1452v131l56 48h151q40 70 82 136v1119zM335 179h919v108q0 69 -18 131.5t-54 117t-99 87t-146 32.5q-53 0 -104.5 -14.5t-95 -37
t-90.5 -61.5t-83 -75t-80.5 -90.5t-74.5 -95.5t-74 -102z" />
    <glyph glyph-name="uniFEC6" unicode="&#x638;" horiz-adv-x="1633" arabic-form="final" 
d="M1559 179h131v-153q-3 -5 -24 -14t-33 -12h-1195q-254 0 -397 31v148h351q64 109 74 123v1132h146v-832q0 -55 -10 -110q134 170 268 255t282 85q191 0 299 -138.5t108 -399.5v-115zM520 179h919v108q0 54 -10.5 105t-35 99.5t-60.5 84.5t-90.5 57.5t-121.5 21.5
q-53 0 -104.5 -14.5t-95 -37t-90.5 -61.5t-82.5 -74.5t-80 -90.5t-74.5 -95.5t-74 -102.5zM1149 1047l-130 131l130 133l131 -133z" />
    <glyph glyph-name="uniFEC7" unicode="&#x638;" horiz-adv-x="1500" arabic-form="initial" 
d="M289 1434h146v-832q0 -45 -7 -98q133 164 264.5 246t275.5 82q191 0 299 -138.5t108 -399.5v-294h-1375v131l56 48h151q40 70 82 136v1119zM335 179h919v108q0 69 -18 131.5t-54 117t-99 87t-146 32.5q-53 0 -104.5 -14.5t-95 -37t-90.5 -61.5t-83 -75t-80.5 -90.5
t-74.5 -95.5t-74 -102zM968 1047l-131 131l131 133l130 -133z" />
    <glyph glyph-name="uniFEC8" unicode="&#x638;" horiz-adv-x="1451" arabic-form="medial" 
d="M289 1434h146v-832q0 -45 -7 -98q133 164 264.5 246t275.5 82q191 0 299 -138.5t108 -399.5v-115h133v-153q-3 -5 -23.5 -14t-32.5 -12h-1452v131l56 48h151q40 70 82 136v1119zM335 179h919v108q0 69 -18 131.5t-54 117t-99 87t-146 32.5q-53 0 -104.5 -14.5t-95 -37
t-90.5 -61.5t-83 -75t-80.5 -90.5t-74.5 -95.5t-74 -102zM968 1047l-131 131l131 133l130 -133z" />
    <glyph glyph-name="uniFECA" unicode="&#x639;" horiz-adv-x="977" arabic-form="final" 
d="M584 -461q97 0 297 26v-151q-154 -57 -346 -57q-229 0 -361.5 91t-132.5 270q0 154 96.5 271t259.5 172l-164 226l-141 199l54 156q107 61 196 91t185 30q182 0 300 -94t118 -257q0 -111 -60 -189.5t-168 -143.5h317v-146l-56 -33h-328q-82 0 -151 44q-151 -35 -242 -111
t-91 -174q0 -77 59.5 -128t150 -71.5t208.5 -20.5zM824 486q0 91 -80 144.5t-209 53.5q-146 0 -297 -72l289 -407q133 49 215 121.5t82 159.5z" />
    <glyph glyph-name="uniFECB" unicode="&#x639;" horiz-adv-x="977" arabic-form="initial" 
d="M581 735q-82 0 -145.5 -21.5t-99 -58t-53 -77.5t-17.5 -86q0 -53 25 -100t80 -88t156.5 -65t240.5 -24q71 0 169 8v-169q-119 -18 -370.5 -36t-466.5 -18h-100v136l56 43h139q84 0 122 3q-171 124 -171 325q0 172 123.5 290.5t298.5 118.5q67 0 134.5 -17.5t101.5 -38.5
v-151q-103 26 -223 26z" />
    <glyph glyph-name="uniFECC" unicode="&#x639;" horiz-adv-x="1031" arabic-form="medial" 
d="M0 148l56 31h382l-151 208l-141 199l54 156q107 61 196 91t185 30q182 0 299.5 -94t117.5 -257q0 -111 -59.5 -189.5t-167.5 -143.5h317v-146l-56 -33h-328q-23 0 -33 3v-3h-671v148zM878 486q0 91 -80 144.5t-209 53.5q-146 0 -297 -72l289 -407q133 49 215 121.5
t82 159.5z" />
    <glyph glyph-name="uniFECE" unicode="&#x63a;" horiz-adv-x="977" arabic-form="final" 
d="M584 -461q97 0 297 26v-151q-154 -57 -346 -57q-229 0 -361.5 91t-132.5 270q0 154 96.5 271t259.5 172l-164 226l-141 199l54 156q107 61 196 91t185 30q182 0 300 -94t118 -257q0 -111 -60 -189.5t-168 -143.5h317v-146l-56 -33h-328q-82 0 -151 44q-151 -35 -242 -111
t-91 -174q0 -77 59.5 -128t150 -71.5t208.5 -20.5zM824 486q0 91 -80 144.5t-209 53.5q-146 0 -297 -72l289 -407q133 49 215 121.5t82 159.5zM527 1075l-130 131l130 133l131 -133z" />
    <glyph glyph-name="uniFECF" unicode="&#x63a;" horiz-adv-x="977" arabic-form="initial" 
d="M581 735q-82 0 -145.5 -21.5t-99 -58t-53 -77.5t-17.5 -86q0 -53 25 -100t80 -88t156.5 -65t240.5 -24q71 0 169 8v-169q-119 -18 -370.5 -36t-466.5 -18h-100v136l56 43h139q84 0 122 3q-171 124 -171 325q0 172 123.5 290.5t298.5 118.5q67 0 134.5 -17.5t101.5 -38.5
v-151q-103 26 -223 26zM548 1129l-131 131l131 133l130 -133z" />
    <glyph glyph-name="uniFED0" unicode="&#x63a;" horiz-adv-x="1031" arabic-form="medial" 
d="M0 148l56 31h382l-151 208l-141 199l54 156q107 61 196 91t185 30q182 0 299.5 -94t117.5 -257q0 -111 -59.5 -189.5t-167.5 -143.5h317v-146l-56 -33h-328q-23 0 -33 3v-3h-671v148zM878 486q0 91 -80 144.5t-209 53.5q-146 0 -297 -72l289 -407q133 49 215 121.5
t82 159.5zM584 1075l-131 131l131 133l130 -133z" />
    <glyph glyph-name="uniFED2" unicode="&#x641;" horiz-adv-x="1850" arabic-form="final" 
d="M120 740h121q-23 -161 -23 -274q0 -156 85 -221.5t299 -65.5h670q-184 130 -184 361q0 170 97.5 274.5t266.5 104.5q168 0 268 -107.5t100 -271.5q0 -222 -192 -361h279v-156l-56 -23h-1278q-489 0 -489 428q0 31 2 63.5t7 72t8 60t10.5 65.5zM1697 509q0 96 -61.5 163.5
t-183.5 67.5q-121 0 -183.5 -67.5t-62.5 -165.5q0 -102 64 -185t187 -120q112 37 176 123t64 184zM1452 1132l-131 130l131 133l130 -133z" />
    <glyph glyph-name="uniFED3" unicode="&#x641;" horiz-adv-x="983" arabic-form="initial" 
d="M860 0h-860v136l56 43h681v220h-614v228q0 243 94.5 376.5t263.5 133.5q174 0 276.5 -138t102.5 -382v-617zM479 960q-122 0 -179 -87t-57 -279v-44h494v23q0 199 -64.5 293t-193.5 94zM479 1349l-131 131l131 133l130 -133z" />
    <glyph glyph-name="uniFED4" unicode="&#x641;" horiz-adv-x="934" arabic-form="medial" 
d="M169 540q0 170 97.5 274.5t265.5 104.5t268.5 -108t100.5 -271q0 -222 -192 -361h279v-156l-56 -23h-935v146l59 33h297q-184 130 -184 361zM778 509q0 96 -62 163.5t-184 67.5q-121 0 -183 -67.5t-62 -165.5q0 -102 64 -185t187 -120q112 37 176 123t64 184zM535 1134
l-131 131l131 133l131 -133z" />
    <glyph glyph-name="uniFED6" unicode="&#x642;" horiz-adv-x="1349" arabic-form="final" 
d="M1270 179h133v-143q-6 -7 -25 -19.5t-29 -16.5h-87q-20 -166 -112 -286.5t-238.5 -182t-332.5 -61.5q-281 0 -421 140t-140 385q0 137 38 335h126q-26 -216 -26 -284q0 -195 118.5 -297t327.5 -102q89 0 173.5 19t162.5 59t132.5 110.5t71.5 164.5h-610v264
q0 243 94.5 376t264.5 133q175 0 277 -140t102 -380v-74zM653 177h496v33q0 177 -66.5 280.5t-201.5 103.5q-118 0 -173 -86.5t-55 -277.5v-53zM768 998l-131 131l131 128l131 -128zM1029 996l-130 130l130 128l131 -128z" />
    <glyph glyph-name="uniFED7" unicode="&#x642;" horiz-adv-x="983" arabic-form="initial" 
d="M860 617v-617h-860v136l56 43h681v220h-614v228q0 243 94.5 376.5t263.5 133.5q174 0 276.5 -138t102.5 -382zM479 960q-122 0 -179 -87t-57 -279v-44h494v23q0 199 -64.5 293t-193.5 94zM346 1359l-131 131l131 128l130 -128l128 128l131 -128l-131 -131l-128 131z" />
    <glyph glyph-name="uniFED8" unicode="&#x642;" horiz-adv-x="934" arabic-form="medial" 
d="M169 540q0 170 97.5 274.5t265.5 104.5t268.5 -108t100.5 -271q0 -222 -192 -361h279v-156l-56 -23h-935v146l59 33h297q-184 130 -184 361zM778 509q0 96 -62 163.5t-184 67.5q-121 0 -183 -67.5t-62 -165.5q0 -102 64 -185t187 -120q112 37 176 123t64 184zM660 1142
l-130 130l130 128l131 -128zM402 1144l-131 131l131 128l130 -128z" />
    <glyph glyph-name="uniFEDA" unicode="&#x643;" horiz-adv-x="1728" arabic-form="final" 
d="M120 740h121q-23 -161 -23 -274q0 -156 85 -221.5t299 -65.5h837v1255h146v-1255h199v-148l-56 -31h-1155q-489 0 -489 428q0 31 2 63.5t7 72t8 60t10.5 65.5zM724 822h203q67 0 104 -36.5t37 -101.5q0 -66 -36.5 -105t-99.5 -39h-305v85h318q29 0 46.5 16t17.5 43
q0 24 -16 37.5t-43 13.5h-290v61q0 57 54 103l136 112l49 -69z" />
    <glyph glyph-name="uniFEDB" unicode="&#x643;" horiz-adv-x="1026" arabic-form="initial" 
d="M901 1549v-187l-648 -448q145 -44 251.5 -99t190.5 -135.5t127 -193t43 -256.5v-230h-865v138l56 41h679v46q0 100 -31 181.5t-101 153.5t-185 131t-280 108v215z" />
    <glyph glyph-name="uniFEDC" unicode="&#x643;" horiz-adv-x="926" arabic-form="medial" 
d="M865 179h118v-153q-3 -5 -23.5 -14t-32.5 -12h-927v138l56 41h679v46q0 100 -31 181.5t-101 153.5t-185 131t-280 108v215l763 535v-187l-648 -448q145 -44 251.5 -99t190.5 -135.5t127 -193t43 -256.5v-51z" />
    <glyph glyph-name="uniFEDE" unicode="&#x644;" horiz-adv-x="1216" arabic-form="final" 
d="M919 1434h143v-1255h210v-128l-56 -51h-154q-10 -209 -154 -327t-391 -118q-249 0 -373 123.5t-124 354.5q0 136 39 323h123q-23 -207 -23 -269q0 -173 96.5 -263t276.5 -90q182 0 284.5 58.5t102.5 174.5v1467z" />
    <glyph glyph-name="uniFEDF" unicode="&#x644;" horiz-adv-x="604" arabic-form="initial" 
d="M289 1434h146v-1434h-435v138l56 41h233v1255z" />
    <glyph glyph-name="uniFEE0" unicode="&#x644;" horiz-adv-x="578" arabic-form="medial" 
d="M289 1434h146v-1255h200v-148l-56 -31h-579v138l56 41h233v1255z" />
    <glyph glyph-name="uniFEE2" unicode="&#x645;" horiz-adv-x="1118" arabic-form="final" 
d="M1175 179v-138l-54 -41h-939v-650h-141v563q0 253 253 266q-30 98 -30 195q0 188 101.5 296t266.5 108q75 0 139.5 -24t116 -71.5t81 -127.5t29.5 -184v-192h177zM430 179h448v182q0 102 -71.5 170t-194.5 68q-66 0 -113 -21t-70.5 -57t-34 -74t-10.5 -81q0 -99 46 -187z
" />
    <glyph glyph-name="uniFEE3" unicode="&#x645;" horiz-adv-x="1154" arabic-form="initial" 
d="M684 778q162 0 255 -104.5t93 -271.5v-402h-410q-227 0 -317 148q-49 -75 -122 -111.5t-183 -36.5v148l56 31q139 0 192 126l39 99q22 57 39 94.5t43.5 85.5t55 79t66.5 59.5t86.5 42t106.5 13.5zM627 179h277v192q0 107 -65 167.5t-168 60.5q-41 0 -74 -9t-61 -32
t-49 -47t-44.5 -69t-39.5 -82t-42 -101q-3 -3 -3 -6q53 -42 116 -58t153 -16z" />
    <glyph glyph-name="uniFEE4" unicode="&#x645;" horiz-adv-x="1149" arabic-form="medial" 
d="M627 179h277v192q0 107 -65 167.5t-168 60.5q-41 0 -74 -9t-61 -32t-49 -47t-44.5 -69t-39.5 -82t-42 -101q-3 -3 -3 -6q53 -42 116 -58t153 -16zM1206 179v-138l-54 -41h-530q-227 0 -317 148q-49 -75 -122 -111.5t-183 -36.5v148l56 31q139 0 192 126l39 99
q22 57 39 94.5t43.5 85.5t55 79t66.5 59.5t86.5 42t106.5 13.5q162 0 255 -104.5t93 -271.5v-223h174z" />
    <glyph glyph-name="uniFEE6" unicode="&#x646;" horiz-adv-x="1305" arabic-form="final" 
d="M996 614h143q21 -174 21 -309v-126h202v-148l-56 -31h-154q-33 -205 -205 -329t-412 -124q-247 0 -382 137t-135 390q0 151 38 333h126q-26 -191 -26 -279q0 -195 107 -297t293 -102q107 0 211.5 30.5t175.5 88.5t71 126v305q0 105 -18 335zM573 617l-130 131l130 133
l131 -133z" />
    <glyph glyph-name="uniFEE7" unicode="&#x646;" horiz-adv-x="624" arabic-form="initial" 
d="M310 755h146v-755h-459v148l59 31h254v576zM384 970l-131 131l131 133l131 -133z" />
    <glyph glyph-name="uniFEE8" unicode="&#x646;" horiz-adv-x="611" arabic-form="medial" 
d="M0 0v138l56 41h256v499h146v-499h213v-153l-57 -26h-614zM387 891l-131 130l131 134l130 -134z" />
    <glyph glyph-name="uniFEEA" unicode="&#x647;" horiz-adv-x="1031" arabic-form="final" 
d="M205 394q0 -79 58.5 -121.5t158.5 -42.5q142 0 302 87v407l-256 -74q-45 -13 -86.5 -33t-83.5 -50.5t-67.5 -75.5t-25.5 -97zM724 1044h141v-680q0 -62 14.5 -100t47 -56t67 -23.5t91.5 -5.5v-123q-2 -27 -17 -41.5t-39 -14.5q-238 0 -292 197q-72 -66 -162.5 -106
t-185.5 -40q-135 0 -221 83t-86 235q0 156 103.5 264t275.5 166l263 87v158z" />
    <glyph glyph-name="uniFEEB" unicode="&#x647;" horiz-adv-x="1344" arabic-form="initial" 
d="M269 814v161q162 -12 305 -47.5t262.5 -95t205.5 -138.5t134 -184t48 -226v-284h-433q-182 0 -338 74q-200 -74 -453 -74v148l56 31q97 0 231 10q-139 139 -139 310q0 97 48.5 178.5t128.5 126.5q-50 8 -56 10zM479 758q-92 0 -151 -69.5t-59 -173.5q0 -101 58.5 -172
t156.5 -113q101 37 149 102t48 167q0 113 -55 186t-147 73zM773 177h330v76q0 264 -343 420q41 -77 41 -176q0 -191 -148 -310q51 -10 120 -10z" />
    <glyph glyph-name="uniFEEC" unicode="&#x647;" horiz-adv-x="844" arabic-form="medial" 
d="M543 852q112 0 184 -87.5t72 -229.5q0 -96 -39 -189t-123 -167h264v-156l-54 -23q46 -62 46 -128q0 -101 -82 -172t-212 -71q-150 0 -261.5 102t-153.5 279q-70 -10 -184 -10v131l56 48q16 0 52 1.5t56 1.5q0 60 8 127.5t24.5 145t47 146.5t70.5 126.5t99.5 91
t129.5 33.5zM678 507q0 91 -44 140t-107 49q-55 0 -99.5 -39t-70.5 -96.5t-43.5 -129t-23.5 -130t-6 -106.5q394 53 394 312zM312 31q36 -112 115.5 -179t192.5 -67q70 0 113 25t43 72q0 23 -13 46t-44.5 49.5t-97.5 52t-160 44.5q-69 -28 -149 -43z" />
    <glyph glyph-name="uniFEEE" unicode="&#x648;" horiz-adv-x="934" arabic-form="final" 
d="M863 179h128v-143q-6 -7 -25 -19.5t-29 -16.5h-77q-9 -129 -56 -228.5t-119.5 -159t-159 -89.5t-182.5 -30q-35 0 -65.5 4t-55 11t-39.5 13t-34 15t-24 11v146q88 -26 187 -26q86 0 161.5 20t136.5 59.5t96.5 105t35.5 148.5h-617v264q0 243 94.5 376t264.5 133
q175 0 277 -140t102 -380v-74zM246 177h496v33q0 177 -66.5 280.5t-201.5 103.5q-118 0 -173 -86.5t-55 -277.5v-53z" />
    <glyph glyph-name="uniFEF0" unicode="&#x649;" horiz-adv-x="1277" arabic-form="final" 
d="M788 282l103 140q7 -6 50.5 -42t52 -42.5t45.5 -35.5t50.5 -36t46.5 -27.5t53 -26.5t50 -16.5t58.5 -13.5t59.5 -3v-112l-41 -36q54 -75 54 -167q0 -127 -103.5 -223t-267 -143.5t-356.5 -47.5q-142 0 -251 29t-178.5 79t-113.5 125t-62 159.5t-18 188.5q0 194 39 361
l123 -11q-23 -172 -23 -322q0 -51 5 -93t18.5 -87t36 -80t60.5 -67.5t89 -54t123 -34t162 -12.5q95 0 196 13.5t191.5 38.5t148.5 66.5t58 91.5q0 60 -86 140t-373 301z" />
    <glyph glyph-name="uniFEF2" unicode="&#x64a;" horiz-adv-x="1277" arabic-form="final" 
d="M788 282l103 140q7 -6 50.5 -42t52 -42.5t45.5 -35.5t50.5 -36t46.5 -27.5t53 -26.5t50 -16.5t58.5 -13.5t59.5 -3v-112l-41 -36q54 -75 54 -167q0 -127 -103.5 -223t-267 -143.5t-356.5 -47.5q-142 0 -251 29t-178.5 79t-113.5 125t-62 159.5t-18 188.5q0 194 39 361
l123 -11q-23 -172 -23 -322q0 -51 5 -93t18.5 -87t36 -80t60.5 -67.5t89 -54t123 -34t162 -12.5q95 0 196 13.5t191.5 38.5t148.5 66.5t58 91.5q0 60 -86 140t-373 301zM512 -1009l-131 131l131 128l131 -128zM771 -1011l-131 130l131 128l130 -128z" />
    <glyph glyph-name="uniFEF3" unicode="&#x64a;" horiz-adv-x="624" arabic-form="initial" 
d="M310 755h146v-755h-459v148l59 31h254v576zM84 -461l-130 131l130 128l131 -128zM343 -463l-131 130l131 128l131 -128z" />
    <glyph glyph-name="uniFEF4" unicode="&#x64a;" horiz-adv-x="611" arabic-form="medial" 
d="M0 0v138l56 41h256v499h146v-499h213v-153l-57 -26h-614zM407 -463l-131 130l131 128l131 -128zM148 -461l-130 131l130 128l131 -128z" />
    <glyph glyph-name="uniFEF5" unicode="&#xfef5;" horiz-adv-x="1126" arabic-form="isolated" 
 />
    <glyph glyph-name="uniFEF6" unicode="&#xfef6;" horiz-adv-x="1167" arabic-form="final" 
 />
    <glyph glyph-name="uniFEF7" unicode="&#xfef7;" horiz-adv-x="1126" arabic-form="isolated" 
 />
    <glyph glyph-name="uniFEF8" unicode="&#xfef8;" horiz-adv-x="1167" arabic-form="final" 
 />
    <glyph glyph-name="uniFEF9" unicode="&#xfef9;" horiz-adv-x="1126" arabic-form="isolated" 
 />
    <glyph glyph-name="uniFEFA" unicode="&#xfefa;" horiz-adv-x="1167" arabic-form="final" 
 />
    <glyph glyph-name="uniFEFB" unicode="&#xfefb;" horiz-adv-x="1126" arabic-form="isolated" 
 />
    <glyph glyph-name="uniFEFC" unicode="&#xfefc;" horiz-adv-x="1146" arabic-form="final" 
 />
    <glyph glyph-name=".notdef" horiz-adv-x="601" 
 />
    <glyph glyph-name="uni0000" 
 />
    <glyph glyph-name="uni0000" 
 />
    <glyph glyph-name="uni000D" unicode="&#xd;" horiz-adv-x="852" 
 />
    <glyph glyph-name="space" unicode=" " horiz-adv-x="358" 
 />
    <glyph glyph-name="exclam" unicode="!" horiz-adv-x="517" 
d="M256 -26l-131 131l131 133l131 -133zM169 1434h179l-15 -1012h-149z" />
    <glyph glyph-name="quotedbl" unicode="&#x22;" horiz-adv-x="675" 
d="M74 1254l-28 351v174h187v-174l-28 -351h-131zM466 1254l-28 351v174h187v-174l-29 -351h-130z" />
    <glyph glyph-name="numbersign" unicode="#" horiz-adv-x="1326" 
d="M748 507l56 358h-248l-57 -356zM876 1331h128l-54 -338h292l-21 -128h-289l-56 -358h345l-18 -128h-348l-59 -376h-130l61 378h-246l-61 -378h-128l61 378h-269l21 128h266l57 356h-326l26 128h323l53 338h128l-53 -338h243z" />
    <glyph glyph-name="percent" unicode="%" horiz-adv-x="1738" 
d="M1364 596q-93 0 -145 -62.5t-52 -172.5q0 -108 52 -169t145 -61q95 0 147.5 61t52.5 169q0 110 -52.5 172.5t-147.5 62.5zM376 1234q-93 0 -145 -63t-52 -173q0 -108 52 -169t145 -61q95 0 147.5 61t52.5 169q0 110 -52.5 173t-147.5 63zM1180 1331h167l-807 -1331h-151z
M1367 717q157 0 243.5 -93.5t86.5 -262.5q0 -167 -86.5 -259t-243.5 -92q-159 0 -246 92t-87 259q0 169 87 262.5t246 93.5zM379 1354q157 0 243.5 -93.5t86.5 -262.5q0 -167 -86 -258.5t-244 -91.5q-159 0 -246 91.5t-87 258.5q0 169 87 262.5t246 93.5z" />
    <glyph glyph-name="quotesingle" unicode="'" horiz-adv-x="307" 
d="M108 1252l-29 351v174h187v-174l-28 -351h-130z" />
    <glyph glyph-name="parenleft" unicode="(" horiz-adv-x="737" 
d="M686 -274h-197q-407 495 -407 1011q0 454 407 999h197q-8 -8 -39.5 -47.5t-82 -110.5t-104 -167t-101 -202t-78 -231.5t-30.5 -240.5q0 -258 123 -537.5t312 -473.5zM686 1736z" />
    <glyph glyph-name="parenright" unicode=")" horiz-adv-x="698" 
d="M248 -274h-197q189 194 312 473.5t123 537.5q0 115 -30.5 240.5t-78 231.5t-101 202t-104 167t-82 110.5t-39.5 47.5h197q407 -545 407 -999q0 -516 -407 -1011zM51 1736z" />
    <glyph glyph-name="asterisk" unicode="*" horiz-adv-x="760" 
d="M333 1288l-249 64l34 115l243 -103l-18 280h115l-18 -282l238 97l36 -115l-251 -61l167 -215l-95 -72l-141 240l-141 -235l-92 72z" />
    <glyph glyph-name="plus" unicode="+" horiz-adv-x="975" 
d="M417 558h-333v141h333v335h139v-335h335v-141h-335v-335h-139v335z" />
    <glyph glyph-name="comma" unicode="," horiz-adv-x="517" 
d="M154 115q0 58 29.5 89.5t82.5 31.5q61 0 93.5 -42.5t32.5 -121.5q0 -67 -23 -130t-61.5 -111t-79.5 -83t-85 -60l-48 59q183 155 187 258q-22 -5 -26 -5q-48 0 -75 30t-27 85z" />
    <glyph glyph-name="hyphen" unicode="-" horiz-adv-x="993" 
d="M904 568h-820v139h820v-139z" />
    <glyph glyph-name="period" unicode="." horiz-adv-x="476" 
d="M220 -26l-130 131l130 133l131 -133z" />
    <glyph glyph-name="slash" unicode="/" horiz-adv-x="793" 
d="M579 1475h174l-492 -1475h-177z" />
    <glyph glyph-name="zero" unicode="0" horiz-adv-x="985" 
d="M499 110q129 0 181 130t52 446q0 294 -51.5 414.5t-178.5 120.5q-137 0 -191.5 -125t-54.5 -430q0 -307 53.5 -431.5t189.5 -124.5zM84 663q0 376 94.5 535t323.5 159q219 0 310.5 -156t91.5 -525q0 -381 -92 -541.5t-315 -160.5q-225 0 -319 158.5t-94 530.5z" />
    <glyph glyph-name="one" unicode="1" horiz-adv-x="609" 
d="M271 1331h172v-1331h-172v1193l-230 -87v138z" />
    <glyph glyph-name="two" unicode="2" horiz-adv-x="893" 
d="M41 0v148q54 60 140.5 154.5t130 143t104.5 120.5t91.5 117t62.5 101t44.5 103.5t12.5 95.5q0 120 -84 179t-231 59q-74 0 -251 -15v118q153 30 290 30q213 0 330.5 -88t117.5 -268q0 -42 -8 -84.5t-17.5 -78t-34.5 -81.5t-41.5 -76t-57.5 -82t-62.5 -79.5t-77.5 -89
t-82 -89t-95.5 -100.5t-99.5 -105l548 3v-136h-730z" />
    <glyph glyph-name="three" unicode="3" horiz-adv-x="885" 
d="M136 750h194q140 0 218.5 62t78.5 176q0 111 -73.5 172t-200.5 61q-67 0 -279 -23v120q203 36 305 36q189 0 296.5 -90t107.5 -253q0 -120 -61.5 -203.5t-173.5 -116.5q125 -50 189 -133t64 -212q0 -177 -119 -274.5t-336 -97.5q-133 0 -305 31v131q126 -26 251 -26
q162 0 248.5 63.5t86.5 187.5q0 120 -79 188t-218 68h-194v133z" />
    <glyph glyph-name="four" unicode="4" horiz-adv-x="1141" 
d="M689 1044l-479 -627h479v627zM745 1331h115v-914h241v-135h-241v-282h-171v282h-648v122z" />
    <glyph glyph-name="five" unicode="5" horiz-adv-x="954" 
d="M90 1331h747v-135h-576v-400h103q238 0 372 -105.5t134 -298.5q0 -198 -145.5 -308t-401.5 -110q-141 0 -277 36v126q177 -26 271 -26q177 0 277 74t100 213q0 126 -89.5 194.5t-248.5 68.5h-266v671z" />
    <glyph glyph-name="six" unicode="6" horiz-adv-x="1103" 
d="M581 110q124 0 194 86.5t70 238.5q0 144 -70 224.5t-196 80.5q-133 0 -207.5 -83.5t-74.5 -231.5t75 -231.5t209 -83.5zM120 422v469q0 219 132.5 341t364.5 122q162 0 282 -28v-128q-249 23 -282 23q-156 0 -238 -78t-82 -221l-3 -187q52 66 134.5 102t185.5 36
q192 0 299.5 -117t107.5 -323q0 -216 -118.5 -337.5t-326.5 -121.5q-214 0 -335 118.5t-121 329.5z" />
    <glyph glyph-name="seven" unicode="7" horiz-adv-x="839" 
d="M41 1196v135h758v-89l-351 -1242h-187l341 1196h-561z" />
    <glyph glyph-name="eight" unicode="8" horiz-adv-x="1044" 
d="M532 105q117 0 183 71t66 198q0 119 -66 185t-183 66q-127 0 -200 -68.5t-73 -190.5q0 -124 72.5 -192.5t200.5 -68.5zM532 745q108 0 169.5 66t61.5 185q0 109 -61.5 169.5t-169.5 60.5q-113 0 -176.5 -62.5t-63.5 -175.5q0 -115 63.5 -179t176.5 -64zM84 346
q0 121 48.5 209.5t138.5 128.5q-76 34 -117 114.5t-41 194.5q0 173 112.5 268.5t306.5 95.5q190 0 297.5 -94t107.5 -265q0 -243 -159 -317q88 -42 135 -127.5t47 -202.5q0 -179 -114 -278t-314 -99q-210 0 -329 96.5t-119 275.5z" />
    <glyph glyph-name="nine" unicode="9" horiz-adv-x="1111" 
d="M530 1221q-128 0 -197 -88t-69 -247q0 -148 70 -231.5t196 -83.5q132 0 205.5 83.5t73.5 231.5q0 158 -73.5 246.5t-205.5 88.5zM205 10v121q132 -21 266 -21q159 0 248.5 72.5t89.5 204.5v179q-55 -63 -139.5 -97t-183.5 -34q-189 0 -295.5 120.5t-106.5 330.5
q0 220 119.5 345.5t328.5 125.5q214 0 335 -123t121 -343v-469q0 -212 -132.5 -330t-366.5 -118q-163 0 -284 36z" />
    <glyph glyph-name="colon" unicode=":" horiz-adv-x="440" 
d="M220 -26l-130 131l130 133l131 -133zM220 348l-130 131l130 133l131 -133z" />
    <glyph glyph-name="semicolon" unicode=";" horiz-adv-x="517" 
d="M287 0l-131 131l131 133l130 -133zM154 819q0 58 29.5 89.5t82.5 31.5q61 0 93.5 -42.5t32.5 -121.5q0 -67 -23 -130t-61.5 -111t-79.5 -83t-85 -60l-48 59q183 155 187 258q-22 -5 -26 -5q-48 0 -75 30t-27 85z" />
    <glyph glyph-name="less" unicode="&#x3c;" horiz-adv-x="1016" 
d="M932 138l-848 435v157l848 404v-159l-737 -325l737 -350v-162z" />
    <glyph glyph-name="equal" unicode="=" horiz-adv-x="1282" 
d="M1198 279h-1114v136h1114v-136zM1198 824h-1114v133h1114v-133z" />
    <glyph glyph-name="greater" unicode="&#x3e;" horiz-adv-x="1016" 
d="M932 573l-848 -435v162l738 350l-738 325v159l848 -404v-157z" />
    <glyph glyph-name="question" unicode="?" horiz-adv-x="1016" 
d="M307 -26l-130 131l130 133l131 -133zM84 1224v164q219 53 390 53q218 0 338 -94t120 -274q0 -60 -15.5 -111t-40 -90t-70 -79t-90 -70.5t-114.5 -72.5l-223 -148v-177h-143v292l307 182q17 10 52 30t49 28.5t40.5 25t37 25.5t28.5 24.5t25 27.5t16 29t12 34.5t3 38.5
q0 101 -83 152t-237 51q-168 0 -402 -41z" />
    <glyph glyph-name="bracketleft" unicode="[" horiz-adv-x="757" 
d="M709 -371v-133h-187q-178 0 -272 106.5t-94 295.5v1385q0 189 94.5 292.5t271.5 103.5h187v-133h-169q-100 0 -153.5 -67.5t-53.5 -195.5v-1393q0 -125 53.5 -193t153.5 -68h169z" />
    <glyph glyph-name="backslash" unicode="\" horiz-adv-x="980" 
d="M691 -184l-607 1820h172l607 -1820h-172z" />
    <glyph glyph-name="bracketright" unicode="]" horiz-adv-x="768" 
d="M44 -504v133h168q100 0 154 68t54 193v1393q0 128 -54 195.5t-154 67.5h-168v133h186q177 0 271.5 -103.5t94.5 -292.5v-1385q0 -189 -94 -295.5t-272 -106.5h-186z" />
    <glyph glyph-name="underscore" unicode="_" horiz-adv-x="1559" 
d="M1559 -389h-1559v105h1559v-105z" />
    <glyph glyph-name="braceleft" unicode="{" horiz-adv-x="847" 
d="M806 -412v-133q-233 0 -362 115t-129 333v512q0 85 -62.5 126.5t-170.5 31.5v131q110 0 172.5 41t62.5 118v356q0 229 127 357.5t362 128.5v-136q-152 0 -230.5 -82t-78.5 -230v-381q0 -89 -58 -151t-163 -85q103 -14 160.5 -70t57.5 -145v-530q0 -153 82.5 -234
t229.5 -73z" />
    <glyph glyph-name="bar" unicode="|" horiz-adv-x="506" 
d="M169 -184v1971h169v-1971h-169z" />
    <glyph glyph-name="braceright" unicode="}" horiz-adv-x="806" 
d="M41 -545v133q147 -8 229.5 73t82.5 234v530q0 89 57.5 145t160.5 70q-105 23 -162.5 85t-57.5 151v381q0 148 -79 230t-231 82v136q237 0 363 -128.5t126 -357.5v-356q0 -77 62.5 -118t172.5 -41v-131q-108 10 -170.5 -31.5t-62.5 -126.5v-512q0 -218 -129 -333
t-362 -115z" />
    <glyph glyph-name="asciitilde" unicode="~" horiz-adv-x="967" 
d="M100 586l-54 100q29 21 70 59t67.5 60t71 40t96.5 18q60 0 143 -46t133 -46q104 0 243 105l57 -103l-17 -17q-40 -40 -63.5 -61.5t-62.5 -51.5t-78.5 -43.5t-80.5 -13.5q-55 0 -146 46q-88 46 -136 46q-41 0 -80.5 -14.5t-88 -41t-74.5 -36.5z" />
    <glyph glyph-name="uni00A0" unicode="&#xa0;" horiz-adv-x="563" 
 />
    <glyph glyph-name="brokenbar" unicode="&#xa6;" horiz-adv-x="501" 
d="M333 -187h-164v860h164v-860zM333 929h-164v889h164v-889z" />
    <glyph glyph-name="multiply" unicode="&#xd7;" horiz-adv-x="921" 
d="M461 527l-277 -274l-97 98l274 276l-277 277l98 97l276 -277l277 277l100 -100l-277 -276l277 -277l-98 -97z" />
    <glyph glyph-name="divide" unicode="&#xf7;" horiz-adv-x="1259" 
d="M622 102l-130 131l130 133l131 -133zM622 940l-130 130l130 133l131 -133zM1175 579h-1091v140h1091v-140z" />
    <glyph glyph-name="uni060C" unicode="&#x60c;" horiz-adv-x="476" 
d="M323 90q0 -58 -30 -89.5t-83 -31.5q-61 0 -93.5 42.5t-32.5 121.5q0 67 23 130t61.5 111t79.5 83t85 60l48 -59q-182 -154 -186 -258q22 5 25 5q48 0 75.5 -30t27.5 -85z" />
    <glyph glyph-name="uni061B" unicode="&#x61b;" horiz-adv-x="512" 
d="M195 0l-131 131l131 133l130 -133zM323 573q0 -58 -30 -89t-83 -31q-61 0 -93.5 42.5t-32.5 121.5q0 67 23 130t61.5 111t79.5 83t85 60l48 -59q-182 -154 -186 -258q22 5 25 5q48 0 75.5 -30.5t27.5 -85.5z" />
    <glyph glyph-name="uni061F" unicode="&#x61f;" horiz-adv-x="1057" 
d="M840 105l-131 -131l-130 131l130 133zM932 1388v-164q-234 41 -402 41q-154 0 -237 -51t-83 -152q0 -21 3 -38.5t12 -34t16 -29t25 -28t29 -25t37.5 -25.5t41 -24.5t48.5 -28.5t52 -30l307 -182v-292h-144v177l-222 148q-71 43 -115 73t-89.5 70t-70.5 79t-40.5 90
t-15.5 111q0 180 120.5 274t338.5 94q170 0 389 -53z" />
    <glyph glyph-name="uni0621" unicode="&#x621;" horiz-adv-x="908" 
d="M41 0v177h264q-128 97 -128 261q0 155 109.5 256.5t261.5 101.5q94 0 192 -56v-146q-94 26 -184 26q-126 0 -191 -56.5t-65 -141.5q0 -20 4 -39t17.5 -44.5t36.5 -46.5t64 -43t95.5 -37t137 -24.5t182.5 -10.5h31v-177h-827z" />
    <glyph glyph-name="uni0622" unicode="&#x622;" horiz-adv-x="481" 
d="M169 1283h143v-1283h-143v1283zM479 1600v-105h-302q-26 0 -56 -9t-46 -17t-55 -28l-53 49q39 35 65 54.5t69 37.5t86 18h292z" />
    <glyph glyph-name="uni0623" unicode="&#x623;" horiz-adv-x="481" 
d="M169 1283h143v-1283h-143v1283zM366 1810v-92q-41 10 -97 10q-57 0 -90 -23t-33 -56q0 -21 13.5 -41.5t47.5 -40t91.5 -25t146.5 1.5v-90l-425 -51v89l134 16q-80 48 -80 148q0 74 48.5 120.5t138.5 46.5q62 0 105 -13z" />
    <glyph glyph-name="uni0624" unicode="&#x624;" horiz-adv-x="988" 
d="M343 -507q-35 0 -65.5 4t-55 11t-39.5 13t-34 15t-24 11v146q88 -26 187 -26q86 0 161.5 20t136.5 59.5t96.5 105t35.5 148.5h-617v264q0 243 94.5 376t264.5 133q175 0 277 -140t102 -380v-192q0 -144 -44 -256t-118.5 -178.5t-165.5 -100t-192 -33.5zM246 177h496v33
q0 177 -66.5 280.5t-201.5 103.5q-118 0 -173 -86.5t-55 -277.5v-53zM617 1298v-92q-41 10 -97 10q-57 0 -90 -23t-33 -56q0 -21 13.5 -41.5t47.5 -40t92 -25t146 1.5v-90l-425 -51v89l133 16q-79 47 -79 148q0 74 48.5 120.5t138.5 46.5q62 0 105 -13z" />
    <glyph glyph-name="uni0625" unicode="&#x625;" horiz-adv-x="481" 
d="M169 0v1434h143v-1434h-143zM353 -151v-95q-54 13 -97 13q-57 0 -90 -23t-33 -56q0 -22 13.5 -42.5t48 -40t92 -25t146.5 2.5v-90l-425 -51v90l133 15q-80 47 -80 148q0 76 50 121.5t145 45.5q55 0 97 -13z" />
    <glyph glyph-name="uni0626" unicode="&#x626;" horiz-adv-x="1405" 
d="M1009 753q-133 0 -216.5 -46.5t-83.5 -135.5q0 -52 34 -88.5t88.5 -58t120.5 -41t131.5 -44.5t120 -59.5t88.5 -95t34 -143.5q0 -91 -37.5 -166t-103.5 -127t-156.5 -88t-196 -53t-223.5 -17q-138 0 -243.5 28t-185.5 88t-121 162.5t-39 244.5q0 143 39 315h123
q-23 -173 -23 -272q0 -384 468 -384q90 0 183.5 13t185 40.5t149.5 80t58 122.5q0 44 -26.5 76.5t-70 51.5t-99 37.5t-113 33.5t-113 41t-99 59t-70 89t-26.5 129q0 160 114.5 268.5t310.5 108.5q166 0 300 -57v-138q-27 3 -76.5 9t-75 9t-67 5.5t-83.5 2.5zM241 957v-92
q-45 11 -98 11q-57 0 -90 -23.5t-33 -56.5q0 -21 13.5 -41.5t48 -40t92.5 -25t146 1.5v-89l-425 -52v90l133 15q-82 49 -82 149q0 74 49.5 120t140.5 46q62 0 105 -13z" />
    <glyph glyph-name="uni0627" unicode="&#x627;" horiz-adv-x="481" 
d="M169 0v1434h143v-1434h-143z" />
    <glyph glyph-name="uni0628" unicode="&#x628;" horiz-adv-x="1774" 
d="M1459 755h146v-755h-1032q-489 0 -489 428q0 31 2 63.5t7 72t8 60t10.5 65.5l8.5 51h121q-23 -161 -23 -274q0 -156 85 -221.5t299 -65.5h857v576zM870 -471l-130 131l130 130l131 -130z" />
    <glyph glyph-name="uni0629" unicode="&#x629;" horiz-adv-x="1008" 
d="M471 691q-123 0 -194.5 -69t-71.5 -189q0 -119 73.5 -185t207.5 -66h277v133q0 189 -75.5 282.5t-216.5 93.5zM479 870q189 0 296.5 -142t107.5 -413v-315h-397q-189 0 -295.5 109.5t-106.5 310.5q0 204 105.5 327t289.5 123zM346 1093l-131 131l131 128l130 -128z
M604 1091l-130 130l130 128l131 -128z" />
    <glyph glyph-name="uni062A" unicode="&#x62a;" horiz-adv-x="1774" 
d="M1459 755h146v-755h-1032q-489 0 -489 428q0 31 2 63.5t7 72t8 60t10.5 65.5l8.5 51h121q-23 -161 -23 -274q0 -156 85 -221.5t299 -65.5h857v576zM735 878l-131 131l131 128l130 -128zM993 876l-130 130l130 128l131 -128z" />
    <glyph glyph-name="uni062B" unicode="&#x62b;" horiz-adv-x="1697" 
d="M1385 755h146v-755h-1032q-489 0 -489 428q0 31 2 63.5t7 72t8 60t10.5 65.5l8.5 51h120q-23 -161 -23 -274q0 -156 85 -221.5t299 -65.5h858v576zM919 876l-131 130l131 128l131 -128zM660 878l-130 131l130 128l131 -128zM791 1121l-125 128l125 126l125 -126z" />
    <glyph glyph-name="uni062C" unicode="&#x62c;" horiz-adv-x="1205" 
d="M681 -346q235 0 481 54v-148q-285 -85 -530 -85q-149 0 -263.5 36.5t-185 101.5t-106.5 150t-36 186q0 452 722 686q-54 8 -136 25t-145 26.5t-121 9.5q-146 0 -302 -74v149q128 99 287 99q65 0 141.5 -16.5t137.5 -37t150 -37t177 -16.5h187v-149q-72 -13 -151.5 -32.5
t-176 -51.5t-185 -71t-173 -92t-146.5 -112t-100 -134.5t-38 -156.5q0 -67 26.5 -121.5t84.5 -97.5t159.5 -67t241.5 -24zM709 -67l-133 134l133 133l133 -133z" />
    <glyph glyph-name="uni062D" unicode="&#x62d;" horiz-adv-x="1205" 
d="M681 -346q235 0 481 54v-148q-285 -85 -530 -85q-149 0 -263.5 36.5t-185 101.5t-106.5 150t-36 186q0 452 722 686q-54 8 -136 25t-145 26.5t-121 9.5q-146 0 -302 -74v149q128 99 287 99q65 0 141.5 -16.5t137.5 -37t150 -37t177 -16.5h187v-149q-72 -13 -151.5 -32.5
t-176 -51.5t-185 -71t-173 -92t-146.5 -112t-100 -134.5t-38 -156.5q0 -67 26.5 -121.5t84.5 -97.5t159.5 -67t241.5 -24z" />
    <glyph glyph-name="uni062E" unicode="&#x62e;" horiz-adv-x="1205" 
d="M681 -346q235 0 481 54v-148q-285 -85 -530 -85q-149 0 -263.5 36.5t-185 101.5t-106.5 150t-36 186q0 452 722 686q-54 8 -136 25t-145 26.5t-121 9.5q-146 0 -302 -74v149q128 99 287 99q65 0 141.5 -16.5t137.5 -37t150 -37t177 -16.5h187v-149q-72 -13 -151.5 -32.5
t-176 -51.5t-185 -71t-173 -92t-146.5 -112t-100 -134.5t-38 -156.5q0 -67 26.5 -121.5t84.5 -97.5t159.5 -67t241.5 -24zM507 1083l-131 130l131 134l130 -134z" />
    <glyph glyph-name="uni062F" unicode="&#x62f;" horiz-adv-x="903" 
d="M261 814l56 143q66 -13 136 -46l51 -28q277 -139 277 -471v-412h-492q-122 0 -248 26v153h612q0 59 -1 96t-4 86t-9.5 81t-17 71.5t-27.5 67.5t-40.5 58t-55.5 54.5t-73 46.5l-38 20q-64 34 -126 54z" />
    <glyph glyph-name="uni0630" unicode="&#x630;" horiz-adv-x="903" 
d="M261 814l56 143q66 -13 136 -46l51 -28q277 -139 277 -471v-412h-492q-122 0 -248 26v153h612q0 59 -1 96t-4 86t-9.5 81t-17 71.5t-27.5 67.5t-40.5 58t-55.5 54.5t-73 46.5l-38 20q-64 34 -126 54zM364 1188l-131 130l131 134l130 -134z" />
    <glyph glyph-name="uni0631" unicode="&#x631;" horiz-adv-x="506" 
d="M-202 -435v148q78 -20 169 -20q57 0 97 15.5t65 43t39 74t19 99.5t5 129v640h146v-604q0 -74 -5 -136t-17.5 -130t-36.5 -120t-59 -95t-89 -66t-123 -24q-64 0 -126.5 16.5t-83.5 29.5z" />
    <glyph glyph-name="uni0632" unicode="&#x632;" horiz-adv-x="506" 
d="M-202 -435v148q78 -20 169 -20q57 0 97 15.5t65 43t39 74t19 99.5t5 129v640h146v-604q0 -74 -5 -136t-17.5 -130t-36.5 -120t-59 -95t-89 -66t-123 -24q-64 0 -126.5 16.5t-83.5 29.5zM271 906l-130 131l130 133l131 -133z" />
    <glyph glyph-name="uni0633" unicode="&#x633;" horiz-adv-x="2380" 
d="M1577 246l100 315h143l-87 -300q38 -40 82.5 -61t114.5 -21h138v515h144v-694h-264q-160 0 -258 148q-82 -148 -279 -148h-254q-9 -150 -94 -266t-223 -177t-305 -61q-247 0 -382 137t-135 390q0 151 38 333h126q-26 -191 -26 -279q0 -195 107.5 -297.5t292.5 -102.5
q106 0 211 31t176 89t71 126v305q0 106 -18 335h143q21 -174 21 -310v-74h325q69 0 92 67z" />
    <glyph glyph-name="uni0634" unicode="&#x634;" horiz-adv-x="2380" 
d="M1577 246l100 315h143l-87 -300q38 -40 82.5 -61t114.5 -21h138v515h144v-694h-264q-160 0 -258 148q-82 -148 -279 -148h-254q-9 -150 -94 -266t-223 -177t-305 -61q-247 0 -382 137t-135 390q0 151 38 333h126q-26 -191 -26 -279q0 -195 107.5 -297.5t292.5 -102.5
q106 0 211 31t176 89t71 126v305q0 106 -18 335h143q21 -174 21 -310v-74h325q69 0 92 67zM1521 788l-131 131l131 128l130 -128zM1779 786l-130 130l130 128l131 -128zM1651 1029l-125 128l125 126l126 -126z" />
    <glyph glyph-name="uni0635" unicode="&#x635;" horiz-adv-x="2626" 
d="M996 563h143q21 -174 21 -310v-74h174q195 329 376 491t384 162q191 0 299 -138.5t108 -399.5v-294h-1344q-9 -150 -94 -266t-223 -177t-305 -61q-247 0 -382 137t-135 390q0 151 38 333h126q-26 -191 -26 -279q0 -195 107.5 -297.5t292.5 -102.5q106 0 211 31t176 89
t71 126v305q0 106 -18 335zM1462 179h919v108q0 54 -10.5 105t-35 99.5t-60.5 84.5t-90.5 57.5t-121.5 21.5q-53 0 -104.5 -14.5t-95 -37t-90.5 -61.5t-82.5 -74.5t-80 -90.5t-74.5 -95.5t-74 -102.5z" />
    <glyph glyph-name="uni0636" unicode="&#x636;" horiz-adv-x="2626" 
d="M996 563h143q21 -174 21 -310v-74h174q195 329 376 491t384 162q191 0 299 -138.5t108 -399.5v-294h-1344q-9 -150 -94 -266t-223 -177t-305 -61q-247 0 -382 137t-135 390q0 151 38 333h126q-26 -191 -26 -279q0 -195 107.5 -297.5t292.5 -102.5q106 0 211 31t176 89
t71 126v305q0 106 -18 335zM1462 179h919v108q0 54 -10.5 105t-35 99.5t-60.5 84.5t-90.5 57.5t-121.5 21.5q-53 0 -104.5 -14.5t-95 -37t-90.5 -61.5t-82.5 -74.5t-80 -90.5t-74.5 -95.5t-74 -102.5zM1434 847l-131 131l131 133l130 -133z" />
    <glyph glyph-name="uni0637" unicode="&#x637;" horiz-adv-x="1681" 
d="M466 1434h146v-832q0 -55 -10 -110q134 170 268 255t282 85q191 0 299 -138.5t108 -399.5v-294h-1121q-254 0 -397 31v148h351q64 109 74 123v1132zM520 179h919v108q0 54 -10.5 105t-35 99.5t-60.5 84.5t-90.5 57.5t-121.5 21.5q-53 0 -104.5 -14.5t-95 -37t-90.5 -61.5
t-82.5 -74.5t-80 -90.5t-74.5 -95.5t-74 -102.5z" />
    <glyph glyph-name="uni0638" unicode="&#x638;" horiz-adv-x="1681" 
d="M466 1434h146v-832q0 -55 -10 -110q134 170 268 255t282 85q191 0 299 -138.5t108 -399.5v-294h-1121q-254 0 -397 31v148h351q64 109 74 123v1132zM520 179h919v108q0 54 -10.5 105t-35 99.5t-60.5 84.5t-90.5 57.5t-121.5 21.5q-53 0 -104.5 -14.5t-95 -37t-90.5 -61.5
t-82.5 -74.5t-80 -90.5t-74.5 -95.5t-74 -102.5zM1152 1047l-131 131l131 133l131 -133z" />
    <glyph glyph-name="uni0639" unicode="&#x639;" horiz-adv-x="911" 
d="M847 527v-179q-253 -75 -346 -113q-265 -106 -324 -253q-18 -46 -18 -97q0 -121 99.5 -188.5t279.5 -67.5q152 0 332 25v-151q-58 -21 -156.5 -37t-191.5 -16q-221 0 -351 106t-130 313q0 71 17 134t46 112t72 92.5t90 76t105 62.5q-121 38 -197.5 119.5t-76.5 207.5
q0 158 116.5 268.5t283.5 110.5q100 0 233 -54v-153q-129 23 -236 23q-129 0 -202.5 -53t-73.5 -142q0 -91 80.5 -154t221.5 -63q149 0 327 71z" />
    <glyph glyph-name="uni063A" unicode="&#x63a;" horiz-adv-x="911" 
d="M847 527v-179q-253 -75 -346 -113q-265 -106 -324 -253q-18 -46 -18 -97q0 -121 99.5 -188.5t279.5 -67.5q152 0 332 25v-151q-58 -21 -156.5 -37t-191.5 -16q-221 0 -351 106t-130 313q0 71 17 134t46 112t72 92.5t90 76t105 62.5q-121 38 -197.5 119.5t-76.5 207.5
q0 158 116.5 268.5t283.5 110.5q100 0 233 -54v-153q-129 23 -236 23q-129 0 -202.5 -53t-73.5 -142q0 -91 80.5 -154t221.5 -63q149 0 327 71zM499 1265l-130 130l130 133l131 -133z" />
    <glyph glyph-name="uni0640" unicode="&#x640;" horiz-adv-x="399" 
d="M56 179h400v-123q0 -7 -24.5 -31.5t-32.5 -24.5h-399v123q0 7 24 31.5t32 24.5z" />
    <glyph glyph-name="uni0641" unicode="&#x641;" horiz-adv-x="1776" 
d="M123 740h120q-8 -44 -15.5 -131t-7.5 -143q0 -156 84 -221.5t298 -65.5h931v220h-617v228q0 243 95 376.5t264 133.5q176 0 277.5 -138t101.5 -382v-617h-1078q-492 0 -492 428q0 99 39 312zM1272 960q-122 0 -178.5 -86.5t-56.5 -279.5v-44h496v23q0 387 -261 387z
M1280 1349l-133 131l133 133l131 -133z" />
    <glyph glyph-name="uni0642" unicode="&#x642;" horiz-adv-x="1395" 
d="M653 177h496v33q0 177 -66.5 280.5t-201.5 103.5q-118 0 -173 -86.5t-55 -277.5v-53zM579 -530q-281 0 -421 140t-140 385q0 137 38 335h126q-26 -216 -26 -284q0 -195 118.5 -297t327.5 -102q89 0 173.5 19t162.5 59t132.5 110.5t71.5 164.5h-610v264q0 243 94.5 376
t264.5 133q175 0 277 -140t102 -380v-166h-3q0 -192 -88.5 -333t-243 -212.5t-356.5 -71.5zM778 996l-130 130l130 128l131 -128zM1037 993l-131 131l131 128l130 -128z" />
    <glyph glyph-name="uni0643" unicode="&#x643;" horiz-adv-x="1751" 
d="M1439 1434h146v-1434h-1012q-489 0 -489 428q0 31 2 63.5t7 72t8 60t10.5 65.5l8.5 51h121q-23 -161 -23 -274q0 -156 85 -221.5t299 -65.5h837v1255zM724 822h203q67 0 104 -36.5t37 -101.5q0 -66 -36.5 -105t-99.5 -39h-305v85h318q29 0 46.5 16t17.5 43q0 24 -16 37.5
t-43 13.5h-290v61q0 57 54 103l136 112l49 -69z" />
    <glyph glyph-name="uni0644" unicode="&#x644;" horiz-adv-x="1231" 
d="M919 1434h143v-1403q0 -223 -144 -349.5t-401 -126.5q-249 0 -373 123.5t-124 354.5q0 136 39 323h123q-23 -207 -23 -269q0 -173 96.5 -263t276.5 -90q182 0 284.5 58.5t102.5 174.5v1467z" />
    <glyph glyph-name="uni0645" unicode="&#x645;" horiz-adv-x="1126" 
d="M1001 0h-819v-650h-141v563q0 132 67 197t189 69q-31 102 -31 195q0 188 102 296t267 108q75 0 139.5 -24t116 -71.5t81 -127.5t29.5 -184v-371zM433 179h448v182q0 102 -72 170t-195 68q-66 0 -112.5 -21t-70.5 -57t-34 -73.5t-10 -81.5q0 -99 46 -187z" />
    <glyph glyph-name="uni0646" unicode="&#x646;" horiz-adv-x="1328" 
d="M996 719h143q21 -174 21 -309v-218q0 -160 -84 -284.5t-225.5 -190t-315.5 -65.5q-247 0 -382 137t-135 390q0 151 38 333h126q-26 -191 -26 -279q0 -195 107 -297t293 -102q107 0 211.5 30.5t175.5 88.5t71 126v305q0 106 -18 335zM581 714l-130 131l130 133l131 -133z
" />
    <glyph glyph-name="uni0647" unicode="&#x647;" horiz-adv-x="1008" 
d="M471 691q-123 0 -194.5 -69t-71.5 -189q0 -119 73.5 -185t207.5 -66h277v133q0 189 -75.5 282.5t-216.5 93.5zM479 870q189 0 296.5 -142t107.5 -413v-315h-397q-189 0 -295.5 109.5t-106.5 310.5q0 204 105.5 327t289.5 123z" />
    <glyph glyph-name="uni0648" unicode="&#x648;" horiz-adv-x="988" 
d="M246 177h496v33q0 177 -66.5 280.5t-201.5 103.5q-118 0 -173 -86.5t-55 -277.5v-53zM343 -507q-35 0 -65.5 4t-55 11t-39.5 13t-34 15t-24 11v146q88 -26 187 -26q86 0 161.5 20t136.5 59.5t96.5 105t35.5 148.5h-617v264q0 243 94.5 376t264.5 133q175 0 277 -140
t102 -380v-192q0 -144 -44 -256t-118.5 -178.5t-165.5 -100t-192 -33.5z" />
    <glyph glyph-name="uni0649" unicode="&#x649;" horiz-adv-x="1410" 
d="M1009 753q-133 0 -216.5 -46.5t-83.5 -135.5q0 -52 34 -88.5t88.5 -58t120.5 -41t131.5 -44.5t120 -59.5t88.5 -95t34 -143.5q0 -91 -37.5 -166t-103.5 -127t-156.5 -88t-196 -53t-223.5 -17q-138 0 -243.5 28t-185.5 88t-121 162.5t-39 244.5q0 143 39 315h123
q-23 -173 -23 -272q0 -384 468 -384q90 0 183.5 13t185 40.5t149.5 80t58 122.5q0 44 -26.5 76.5t-70 51.5t-99 37.5t-113 33.5t-113 41t-99 59t-70 89t-26.5 129q0 160 114.5 268.5t310.5 108.5q166 0 300 -57v-138q-27 3 -76.5 9t-75 9t-67 5.5t-83.5 2.5z" />
    <glyph glyph-name="uni064A" unicode="&#x64a;" horiz-adv-x="1410" 
d="M1009 753q-133 0 -216.5 -46.5t-83.5 -135.5q0 -52 34 -88.5t88.5 -58t120.5 -41t131.5 -44.5t120 -59.5t88.5 -95t34 -143.5q0 -91 -37.5 -166t-103.5 -127t-156.5 -88t-196 -53t-223.5 -17q-138 0 -243.5 28t-185.5 88t-121 162.5t-39 244.5q0 143 39 315h123
q-23 -173 -23 -272q0 -384 468 -384q90 0 183.5 13t185 40.5t149.5 80t58 122.5q0 44 -26.5 76.5t-70 51.5t-99 37.5t-113 33.5t-113 41t-99 59t-70 89t-26.5 129q0 160 114.5 268.5t310.5 108.5q166 0 300 -57v-138q-27 3 -76.5 9t-75 9t-67 5.5t-83.5 2.5zM481 -868
l-130 131l130 128l131 -128zM740 -870l-131 130l131 128l130 -128z" />
    <glyph glyph-name="uni064B" unicode="&#x64b;" 
d="M-279 82l568 87v-74l-568 -90v77zM-279 315l568 87v-74l-568 -90v77z" />
    <glyph glyph-name="uni064C" unicode="&#x64c;" 
d="M-133 351q0 60 47 110.5t112 50.5q60 -2 105 -50.5t43 -118.5q-1 -42 -21.5 -85.5t-45.5 -75.5t-69.5 -71t-71 -59t-71.5 -52q-86 99 -143 115q-31 6 -58.5 -8t-72.5 -53l-38 54q89 81 156 81q46 0 86 -28.5t83 -76.5q76 53 118 95l-72 39q-92 57 -87 133zM5 445
q-36 0 -60 -22.5t-24 -51.5q0 -51 69 -87l89 -46q36 50 36 87q0 45 -34 81.5t-76 38.5z" />
    <glyph glyph-name="uni064D" unicode="&#x64d;" 
d="M-287 -87l569 87v-74l-569 -90v77zM-287 -330l569 87v-74l-569 -90v77z" />
    <glyph glyph-name="uni064E" unicode="&#x64e;" 
d="M-276 77l568 87v-74l-568 -90v77z" />
    <glyph glyph-name="uni064F" unicode="&#x64f;" 
d="M-148 -10l-41 48q123 79 189 141l-72 39q-92 57 -87 133q0 60 47 110.5t112 50.5q60 -2 105 -51t43 -121q-1 -51 -29 -102.5t-77 -98t-92 -80t-98 -69.5zM90 325q0 46 -34.5 82t-78.5 38q-34 0 -58 -22.5t-24 -51.5q0 -51 69 -87l90 -48q36 56 36 89z" />
    <glyph glyph-name="uni0650" unicode="&#x650;" 
d="M-276 -87l568 87v-74l-568 -90v77z" />
    <glyph glyph-name="uni0651" unicode="&#x651;" 
d="M184 310h62v-159q0 -76 -36 -113.5t-97 -37.5q-43 0 -74.5 18t-43.5 43q-39 -61 -136 -61q-69 0 -105 37.5t-36 108.5v115h62v-105q0 -38 24.5 -61t72.5 -23q47 0 69.5 23t22.5 74v97h62v-97q0 -95 84 -95q37 0 53 20t16 70v146z" />
    <glyph glyph-name="uni0652" unicode="&#x652;" 
d="M0 72q51 0 82 26t31 68t-31 66t-85 24q-55 0 -86 -24t-31 -66t32.5 -68t87.5 -26zM-3 333q75 0 119.5 -45.5t44.5 -121.5t-44.5 -121t-119.5 -45q-77 0 -121.5 45t-44.5 121q0 77 45 122t121 45z" />
    <glyph glyph-name="uni0653" unicode="&#x653;" 
d="M236 105v-105h-303q-26 0 -56 -9.5t-45 -16.5t-55 -28l-53 49q39 35 65 54.5t69 37.5t86 18h292z" />
    <glyph glyph-name="uni0654" unicode="&#x654;" 
d="M128 407v-92q-41 10 -97 10q-58 0 -90.5 -23t-32.5 -56q0 -21 13.5 -41.5t47.5 -40t91.5 -25t146.5 1.5v-90l-425 -51v90l134 15q-82 49 -82 148q0 74 49 120.5t140 46.5q62 0 105 -13z" />
    <glyph glyph-name="uni0655" unicode="&#x655;" 
d="M113 -18v-92q-41 10 -98 10q-58 0 -90.5 -23t-32.5 -56q0 -21 13.5 -41.5t48 -40t92.5 -25t146 1.5v-90l-425 -51v90l133 15q-82 49 -82 148q0 74 49.5 120.5t140.5 46.5q62 0 105 -13z" />
    <glyph glyph-name="uni0660" unicode="&#x660;" horiz-adv-x="606" 
d="M166 696l11 11q31 31 44.5 44t29 22.5t28.5 9.5q20 0 44.5 -19t73.5 -68q68 -68 79 -88q14 -28 -12 -61q-10 -13 -67 -71q-13 -12 -31 -30t-26.5 -26t-20 -17t-20 -12.5t-17.5 -3.5q-18 0 -41.5 19t-74.5 70q-64 66 -74 84q-17 30 9 66q15 20 65 70z" />
    <glyph glyph-name="uni0661" unicode="&#x661;" horiz-adv-x="478" 
d="M169 1434h143v-1434h-143v1434z" />
    <glyph glyph-name="uni0662" unicode="&#x662;" horiz-adv-x="880" 
d="M840 1254h-284q-118 0 -181 -68.5t-63 -189.5v-996h-143v996q0 212 98.5 325t290.5 113h282v-180z" />
    <glyph glyph-name="uni0663" unicode="&#x663;" horiz-adv-x="1272" 
d="M169 1434h143v-295q0 -102 50.5 -156t129.5 -54q156 0 156 226v279h143v-279q0 -101 45 -163.5t106 -62.5q56 0 79 56.5t23 169.5v279h144v-279q0 -183 -56.5 -281t-166.5 -98q-72 0 -127 43.5t-85 127.5q-44 -86 -117 -131t-152 -45q-104 0 -172 79v-850h-143v1434z" />
    <glyph glyph-name="uni0664" unicode="&#x664;" horiz-adv-x="775" 
d="M689 1439v-146l-100 -21q-38 -9 -49 -11.5t-55.5 -14t-65 -19.5t-60 -21.5t-60 -27t-44.5 -30t-34.5 -36t-10.5 -39.5q0 -58 95.5 -113.5t306.5 -132.5v-118q-21 -13 -83 -44.5t-109.5 -60t-101 -68t-83.5 -86.5t-30 -97q0 -49 29 -84t80.5 -54t111 -27.5t130.5 -8.5h179
v-179h-192q-91 0 -170.5 18t-145.5 55.5t-104.5 101.5t-38.5 148q0 72 27 136.5t78 117.5t102.5 92t120.5 81q-72 25 -124 50t-100 61.5t-73 86.5t-25 112q0 48 16.5 90.5t42.5 73.5t66.5 58.5t79.5 46t91.5 36t92.5 27.5t92 21z" />
    <glyph glyph-name="uni0665" unicode="&#x665;" horiz-adv-x="970" 
d="M484 950q-85 0 -150.5 -59t-97 -142t-31.5 -170q0 -241 276 -241q132 0 208 59t76 187q0 86 -31 167.5t-97.5 140t-152.5 58.5zM489 1129q94 0 171 -46.5t126 -123.5t75.5 -174t26.5 -201q0 -111 -30.5 -195t-85.5 -134t-127 -74.5t-161 -24.5q-183 0 -291.5 102.5
t-108.5 317.5q0 143 46 267t140.5 205t218.5 81z" />
    <glyph glyph-name="uni0666" unicode="&#x666;" horiz-adv-x="919" 
d="M41 1434h709v-1434h-146v1254h-563v180z" />
    <glyph glyph-name="uni0667" unicode="&#x667;" horiz-adv-x="1134" 
d="M632 0h-130l-461 1434h197l356 -1204l351 1204h148z" />
    <glyph glyph-name="uni0668" unicode="&#x668;" horiz-adv-x="1134" 
d="M502 1434h133l458 -1434h-197l-353 1203l-354 -1203h-148z" />
    <glyph glyph-name="uni0669" unicode="&#x669;" horiz-adv-x="972" 
d="M466 1459q56 0 105.5 -14t101 -54.5t87.5 -105t59 -174t23 -253.5v-858h-143v660h-615v236q0 111 16 200.5t45 149.5t64.5 103t80 66t87 33.5t89.5 10.5zM207 842h492v10q0 428 -248 428q-119 0 -181.5 -95t-62.5 -274v-69z" />
    <glyph glyph-name="uni066A" unicode="&#x66a;" horiz-adv-x="1861" 
d="M1403 596q-93 0 -145 -62.5t-52 -172.5q0 -108 52 -169t145 -61q95 0 147.5 61t52.5 169q0 110 -52.5 172.5t-147.5 62.5zM415 1234q-93 0 -145 -63t-52 -173q0 -108 52 -169t145 -61q95 0 147 61t52 169q0 111 -52 173.5t-147 62.5zM1219 1331h166l-806 -1331h-151z
M1405 717q157 0 244 -93.5t87 -262.5q0 -167 -86.5 -259t-244.5 -92q-159 0 -245.5 92t-86.5 259q0 169 86.5 262.5t245.5 93.5zM417 1354q157 0 244 -93.5t87 -262.5q0 -167 -86.5 -258.5t-244.5 -91.5q-159 0 -246 91.5t-87 258.5q0 169 87 262.5t246 93.5z" />
    <glyph glyph-name="uni066B" unicode="&#x66b;" horiz-adv-x="517" 
d="M328 110q0 -58 -30 -89t-83 -31q-61 0 -93 42.5t-32 121.5q0 67 23 130t61 111t79 83t85 60l49 -59q-183 -155 -187 -259q22 5 25 5q48 0 75.5 -30t27.5 -85z" />
    <glyph glyph-name="uni066D" unicode="&#x66d;" horiz-adv-x="839" 
d="M333 1288l-249 64l34 115l243 -103l-18 280h115l-18 -282l238 97l36 -115l-251 -61l167 -215l-95 -72l-141 240l-141 -235l-92 72z" />
    <glyph glyph-name="uni066E" unicode="&#x66e;" horiz-adv-x="1743" 
d="M1459 755h146v-755h-1032q-489 0 -489 428q0 31 2 63.5t7 72t8 60t10.5 65.5l8.5 51h121q-23 -161 -23 -274q0 -156 85 -221.5t299 -65.5h857v576z" />
    <glyph glyph-name="uni066F" unicode="&#x66f;" horiz-adv-x="1395" 
d="M653 177h496v33q0 177 -66.5 280.5t-201.5 103.5q-118 0 -173 -86.5t-55 -277.5v-53zM579 -530q-281 0 -421 140t-140 385q0 137 38 335h126q-26 -216 -26 -284q0 -195 118.5 -297t327.5 -102q89 0 173.5 19t162.5 59t132.5 110.5t71.5 164.5h-610v264q0 243 94.5 376
t264.5 133q175 0 277 -140t102 -380v-166h-3q0 -192 -88.5 -333t-243 -212.5t-356.5 -71.5z" />
    <glyph glyph-name="uni0670" unicode="&#x670;" 
d="M41 346v-300l-85 -56v356h85z" />
    <glyph glyph-name="uni067E" unicode="&#x67e;" horiz-adv-x="1774" 
d="M1459 755h146v-755h-1032q-489 0 -489 428q0 31 2 63.5t7 72t8 60t10.5 65.5l8.5 51h121q-23 -161 -23 -274q0 -156 85 -221.5t299 -65.5h857v576zM873 -353l131 130l130 -130l-130 -128zM612 -353l130 130l131 -130l-131 -128zM748 -594l125 128l125 -128l-125 -125z
" />
    <glyph glyph-name="uni0686" unicode="&#x686;" horiz-adv-x="1205" 
d="M681 -346q235 0 481 54v-148q-285 -85 -530 -85q-149 0 -263.5 36.5t-185 101.5t-106.5 150t-36 186q0 452 722 686q-54 8 -136 25t-145 26.5t-121 9.5q-146 0 -302 -74v149q128 99 287 99q65 0 141.5 -16.5t137.5 -37t150 -37t177 -16.5h187v-149q-72 -13 -151.5 -32.5
t-176 -51.5t-185 -71t-173 -92t-146.5 -112t-100 -134.5t-38 -156.5q0 -67 26.5 -121.5t84.5 -97.5t159.5 -67t241.5 -24zM532 92l90 92l90 -89l89 89l90 -92l-90 -89l-89 89l-90 -89zM625 -74l87 87l87 -87l-87 -90z" />
    <glyph glyph-name="uni06A1" unicode="&#x6a1;" horiz-adv-x="1761" 
d="M123 740h120q-8 -44 -15.5 -131t-7.5 -143q0 -156 84 -221.5t298 -65.5h931v220h-617v228q0 243 95 376.5t264 133.5q176 0 277.5 -138t101.5 -382v-617h-1078q-492 0 -492 428q0 99 39 312zM1272 960q-122 0 -178.5 -86.5t-56.5 -279.5v-44h496v23q0 387 -261 387z" />
    <glyph glyph-name="uni06A4" unicode="&#x6a4;" horiz-adv-x="1776" 
d="M123 740h120q-8 -44 -15.5 -131t-7.5 -143q0 -156 84 -221.5t298 -65.5h931v220h-617v228q0 243 95 376.5t264 133.5q176 0 277.5 -138t101.5 -382v-617h-1078q-492 0 -492 428q0 99 39 312zM1272 960q-122 0 -178.5 -86.5t-56.5 -279.5v-44h496v23q0 387 -261 387z
M1147 1359l-128 131l128 128l130 -128l128 128l131 -128l-131 -131l-128 131zM1277 1603l-125 128l125 125l128 -125z" />
    <glyph glyph-name="uni06BA" unicode="&#x6ba;" horiz-adv-x="1328" 
d="M996 719h143q21 -174 21 -309v-218q0 -160 -84 -284.5t-225.5 -190t-315.5 -65.5q-247 0 -382 137t-135 390q0 151 38 333h126q-26 -191 -26 -279q0 -195 107 -297t293 -102q107 0 211.5 30.5t175.5 88.5t71 126v305q0 106 -18 335z" />
    <glyph glyph-name="uni06D4" unicode="&#x6d4;" horiz-adv-x="440" 
d="M220 -5l-130 130l130 134l131 -134z" />
    <glyph glyph-name="endash" unicode="&#x2013;" horiz-adv-x="1402" 
d="M1318 589h-1234v138h1234v-138z" />
    <glyph glyph-name="emdash" unicode="&#x2014;" horiz-adv-x="1986" 
d="M1902 591h-1818v141h1818v-141z" />
    <glyph glyph-name="quoteleft" unicode="&#x2018;" horiz-adv-x="512" 
d="M323 1510q0 -58 -30 -89t-83 -31q-61 0 -93.5 42.5t-32.5 121.5q0 67 23 130t61.5 111t79.5 83t85 60l48 -59q-182 -154 -186 -259q5 1 10.5 2.5t9 2.5t5.5 1q48 0 75.5 -30.5t27.5 -85.5z" />
    <glyph glyph-name="quoteright" unicode="&#x2019;" horiz-adv-x="512" 
d="M148 1600q0 58 30 89t83 31q61 0 93.5 -42.5t32.5 -121.5q0 -67 -23 -130t-61.5 -111t-79.5 -83t-85 -60l-48 59q182 154 186 259q-22 -5 -25 -5q-48 0 -75.5 30t-27.5 85z" />
    <glyph glyph-name="quotesinglbase" unicode="&#x201a;" horiz-adv-x="512" 
d="M323 110q0 -58 -30 -89t-83 -31q-61 0 -93.5 42.5t-32.5 121.5q0 67 23 130t61.5 111t79.5 83t85 60l48 -59q-182 -154 -186 -259q22 5 25 5q48 0 75.5 -30t27.5 -85z" />
    <glyph glyph-name="quotedblleft" unicode="&#x201c;" horiz-adv-x="908" 
d="M315 1531q0 -57 -29 -87.5t-81 -30.5q-59 0 -90 41t-31 120q0 67 23 130t61 110.5t78.5 82.5t83.5 59l46 -59q-183 -158 -187 -259l26 6q48 0 74 -29.5t26 -83.5zM719 1531q0 -57 -29 -87.5t-81 -30.5q-120 0 -120 161q0 67 23 130t61 110.5t78.5 82.5t83.5 59l46 -59
q-183 -158 -187 -259l26 6q48 0 73.5 -29.5t25.5 -83.5z" />
    <glyph glyph-name="quotedblright" unicode="&#x201d;" horiz-adv-x="908" 
d="M553 1549q0 57 29 87.5t81 30.5q120 0 120 -162q0 -67 -23 -130t-61 -110.5t-78 -82t-83 -58.5l-46 59q182 157 186 258q-22 -5 -25 -5q-48 0 -74 29.5t-26 83.5zM148 1549q0 57 29.5 87.5t81.5 30.5q120 0 120 -162q0 -67 -23 -130t-61 -110.5t-78.5 -82t-83.5 -58.5
l-46 59q183 158 187 258q-22 -5 -26 -5q-48 0 -74 29.5t-26 83.5z" />
    <glyph glyph-name="quotedblbase" unicode="&#x201e;" horiz-adv-x="908" 
d="M315 67q0 -57 -29 -87.5t-81 -30.5q-59 0 -90 41t-31 120q0 67 23 130t61 110.5t78.5 82.5t83.5 59l46 -59q-183 -158 -187 -259q22 5 26 5q48 0 74 -29t26 -83zM719 67q0 -57 -29 -87.5t-81 -30.5q-120 0 -120 161q0 67 23 130t61 110.5t78.5 82.5t83.5 59l46 -59
q-183 -158 -187 -259q22 5 26 5q48 0 73.5 -29t25.5 -83z" />
    <glyph glyph-name="fraction" unicode="&#x2044;" 
d="M340 1820h167l-776 -1623h-161z" />
    <glyph glyph-name="uniFBB2" unicode="&#xfbb2;" 
d="M0 0l-131 131l131 133l131 -133z" />
    <glyph glyph-name="uniFBB3" unicode="&#xfbb3;" 
d="M0 -259l-131 131l131 133l131 -133z" />
    <glyph glyph-name="uniFBB4" unicode="&#xfbb4;" 
d="M-133 0l-128 128l128 133l128 -133zM128 -3l-128 128l128 134l128 -134z" />
    <glyph glyph-name="uniFBB5" unicode="&#xfbb5;" 
d="M-131 -259l-128 128l128 134l128 -134zM131 -261l-128 128l128 133l128 -133z" />
    <glyph glyph-name="uniFBB6" unicode="&#xfbb6;" horiz-adv-x="271" 
d="M-131 0l-128 128l128 133l128 -133zM0 243l-125 126l125 128l125 -128zM131 -3l-128 128l128 134l128 -134z" />
    <glyph glyph-name="uniFBB7" unicode="&#xfbb7;" 
d="M-136 5l-128 128l128 133l128 -133zM-5 248l-126 126l126 128l125 -128zM125 3l-128 128l128 133l128 -133z" />
    <glyph glyph-name="uniFBB8" unicode="&#xfbb8;" 
d="M-581 548l128 128l128 -128l-128 -133zM-448 307l125 126l126 -126l-126 -128zM-320 550l128 128l128 -128l-128 -133z" />
    <glyph glyph-name="uniFBB9" unicode="&#xfbb9;" 
d="M-256 -128l128 128l128 -128l-128 -133zM-123 -369l126 126l125 -126l-125 -128zM5 -125l128 128l128 -128l-128 -134z" />
    <glyph glyph-name="uniFBBD" unicode="&#xfbbd;" horiz-adv-x="284" 
d="M0 0l-128 128l128 133l128 -133zM0 261l-128 128l128 133l128 -133z" />
    <glyph glyph-name="uniFBBE" unicode="&#xfbbe;" horiz-adv-x="271" 
d="M-13 -517l-128 128l128 133l-128 128l128 133l128 -133l-128 -128l128 -133z" />
    <glyph glyph-name="uniFD3E" unicode="&#xfd3e;" horiz-adv-x="1057" 
d="M932 138l-848 435v157l848 404v-159l-737 -325l737 -350v-162z" />
    <glyph glyph-name="uniFD3F" unicode="&#xfd3f;" horiz-adv-x="983" 
d="M932 573l-848 -435v162l738 350l-738 325v159l848 -404v-157z" />
    <glyph glyph-name="CR" horiz-adv-x="601" 
 />
    <glyph glyph-name="exclam.ss04" horiz-adv-x="517" 
d="M179 0v195h159v-195h-159zM169 1336h179l-13 -1011h-151z" />
    <glyph glyph-name="period.ss04" horiz-adv-x="368" 
d="M84 0v195h159v-195h-159z" />
    <glyph glyph-name="colon.ss04" horiz-adv-x="337" 
d="M90 0v195h158v-195h-158zM90 453v195h158v-195h-158z" />
    <glyph glyph-name="semicolon.ss04" horiz-adv-x="517" 
d="M172 0v195h158v-195h-158zM154 832q0 58 29.5 89t82.5 31q61 0 93.5 -42.5t32.5 -121.5q0 -67 -23 -130t-61.5 -111t-79.5 -83t-85 -60l-48 59q183 155 187 259q-22 -5 -26 -5q-48 0 -75 30t-27 85z" />
    <glyph glyph-name="question.ss04" horiz-adv-x="1016" 
d="M228 0v195h159v-195h-159zM84 1224v164q219 53 390 53q218 0 338 -94t120 -274q0 -60 -15.5 -111t-40 -90t-70 -79t-90 -70.5t-114.5 -72.5l-223 -148v-177h-143v292l307 182q17 10 52 30t49 28.5t40.5 25t37 25.5t28.5 24.5t25 27.5t16 29t12 34.5t3 38.5q0 101 -83 152
t-237 51q-168 0 -402 -41z" />
    <glyph glyph-name="divide.ss04" horiz-adv-x="1262" 
d="M522 5v195h159v-195h-159zM522 827v194h159v-194h-159zM1175 425h-1091v161h1091v-161z" />
    <glyph glyph-name="semicolonAr.ss04" horiz-adv-x="512" 
d="M323 573q0 -58 -30 -89t-83 -31q-61 0 -93.5 42.5t-32.5 121.5q0 67 23 130t61.5 111t79.5 83t85 60l48 -59q-182 -154 -186 -258q22 5 25 5q48 0 75.5 -30.5t27.5 -85.5zM123 0v195h159v-195h-159z" />
    <glyph glyph-name="questionAr.ss04" horiz-adv-x="1057" 
d="M788 195v-195h-158v195h158zM932 1388v-164q-234 41 -402 41q-154 0 -237 -51t-83 -152q0 -23 5.5 -43.5t12 -36t23.5 -33.5t28.5 -28.5t39.5 -29t43.5 -27.5t54 -31.5t57.5 -33.5l307 -182v-292h-144v177l-222 148q-71 43 -114.5 73t-89.5 70.5t-70.5 79t-40.5 89.5
t-16 111q0 180 120.5 274t338.5 94q170 0 389 -53z" />
    <glyph glyph-name="alefMaddaAr.fina.calt" horiz-adv-x="517" 
d="M125 1147h180q123 -344 138 -397q126 -380 138 -614l-8 -5v-98l-56 -33h-228q-120 0 -248 26l10 153h430zM494 1464v-105h-302q-26 0 -55.5 -9t-46.5 -17t-54 -27l-54 48q39 35 65 54.5t69 37.5t86 18h292z" />
    <glyph glyph-name="alefHamzaaboveAr.fina.calt" horiz-adv-x="517" 
d="M125 1147h180q123 -344 138 -397q126 -380 138 -614l-8 -5v-98l-56 -33h-228q-120 0 -248 26l10 153h430zM381 1672v-92q-41 10 -97 10q-57 0 -90 -23.5t-33 -56.5q0 -21 13.5 -41.5t48 -40t92 -25t146.5 1.5v-89l-425 -51v89l133 16q-79 47 -79 148q0 74 47.5 120
t138.5 46q65 0 105 -12z" />
    <glyph glyph-name="alefHamzabelowAr.fina.calt" horiz-adv-x="517" 
d="M125 1147h180q123 -344 138 -397q126 -380 138 -614l-8 -5v-98l-56 -33h-228q-120 0 -248 26l10 153h430zM407 -151v-95q-54 13 -97 13q-57 0 -90 -23t-33 -56q0 -23 13.5 -43t47.5 -39.5t92 -24.5t146 2v-90l-425 -51v90l134 15q-80 47 -80 148q0 76 50 121.5t145 45.5
q55 0 97 -13z" />
    <glyph glyph-name="yehHamzaaboveAr.fina.calt" horiz-adv-x="1625" 
d="M1147 620q-98 0 -171.5 -17.5t-111 -41.5t-59.5 -56.5t-27 -53.5t-5 -41q0 -39 24.5 -71t63.5 -55t86.5 -45.5t94.5 -50.5t86 -62t63.5 -87.5t24.5 -120.5q0 -102 -53 -184t-142.5 -132.5t-201 -77t-235.5 -26.5q-566 0 -566 558q0 142 38 320l123 -15q-20 -168 -20 -253
q0 -221 105.5 -326t347.5 -105q84 0 165 12.5t154 37t117.5 69.5t44.5 104q0 42 -24.5 75t-63 56t-85.5 45.5t-94 50t-85.5 61.5t-63 88t-24.5 123q0 79 32 149.5t92 125.5t154.5 87.5t210.5 32.5q135 0 325 -52v-350q0 -125 45.5 -169t166.5 -44v-156l-53 -23
q-157 0 -231 104t-74 288v217q-84 11 -174 11zM251 893v-92q-45 11 -97 11q-57 0 -90 -23.5t-33 -56.5q0 -21 13.5 -41.5t47.5 -40t92 -25t146 1.5v-89l-425 -52v90l133 15q-82 49 -82 149q0 74 49.5 120t140.5 46q62 0 105 -13z" />
    <glyph glyph-name="yehHamzaaboveAr.fina.calt.ss01" horiz-adv-x="2227" 
d="M1772 620q-73 0 -138.5 -9.5t-126 -30.5t-96.5 -62t-36 -98q0 -41 33 -73.5t82.5 -53t107 -47.5t107 -56t82.5 -80t33 -118q0 -107 -83 -190.5t-220.5 -132.5t-299 -74t-334.5 -25q-228 0 -430 43t-356 119t-269.5 171t-191.5 207l90 85q58 -65 131.5 -125.5t182.5 -122
t232.5 -106.5t286 -73.5t337.5 -28.5q197 0 381 32t301 88.5t117 120.5q0 29 -24.5 53t-63 42.5t-85.5 37.5t-94.5 44.5t-86 57.5t-63 83t-24.5 114q0 71 30 137.5t87.5 122t155.5 89t221 33.5q140 0 320 -52v-30h3v-320q0 -125 46 -169t167 -44v-156l-54 -23
q-157 0 -231 104t-74 288v217q-67 11 -153 11zM356 545v-92q-41 10 -97 10q-57 0 -90 -23t-33 -56q0 -21 13.5 -41.5t47.5 -40t91.5 -25t146.5 1.5v-90l-425 -51v90l133 15q-79 47 -79 149q0 74 48 120t139 46q62 0 105 -13z" />
    <glyph glyph-name="yehHamzaaboveAr.fina.ss01" horiz-adv-x="2196" 
d="M1687 282l102 140q7 -6 50.5 -42t52 -42.5t45.5 -35.5t50.5 -36t46.5 -27.5t53 -26.5t50 -16.5t58.5 -13.5t59.5 -3v-112l-46 -41q21 -45 21 -87q0 -82 -82.5 -145.5t-217.5 -99.5t-289.5 -54.5t-316.5 -18.5q-161 0 -305.5 18.5t-254 48.5t-207.5 74t-166.5 89
t-130.5 100.5t-100.5 100t-75.5 96.5l93 85q57 -67 124 -125.5t170.5 -121.5t222 -107.5t281.5 -73t346 -28.5q203 0 443 35t345 80v54q0 18 -46 56t-164.5 123t-203.5 151q-2 0 -8 6zM658 637v-92q-45 11 -97 11q-57 0 -90 -23.5t-33 -56.5q0 -21 13.5 -41.5t47.5 -40
t91.5 -25t146.5 1.5v-89l-425 -52v90l133 15q-79 47 -79 149q0 74 48 120t139 46q62 0 105 -13z" />
    <glyph glyph-name="yehHamzaaboveAr.medi.calt" horiz-adv-x="40" 
d="M-95 1290v-92q-39 10 -94 10q-58 0 -90.5 -23t-32.5 -56q0 -21 13.5 -41.5t47.5 -40t91.5 -25t144.5 1.5v-90l-423 -51v90l133 15q-82 49 -82 149q0 74 49.5 120t140.5 46q62 0 102 -13zM0 154l56 25h41v-148l-56 -31h-41v154z" />
    <glyph glyph-name="yehHamzaaboveAr.medi.calt.heh" horiz-adv-x="40" 
d="M-95 1075v-92q-39 10 -94 10q-58 0 -90.5 -23t-32.5 -56q0 -21 13.5 -41.5t47.5 -40t91.5 -25t144.5 1.5v-90l-423 -51v90l133 15q-82 49 -82 149q0 74 49.5 120t140.5 46q62 0 102 -13zM0 154l56 25h41v-148l-56 -31h-41v154z" />
    <glyph glyph-name="yehHamzaaboveAr.ss01" horiz-adv-x="1904" 
d="M1508 753q-52 0 -102.5 -10.5t-96 -31t-73.5 -56.5t-28 -82t34 -81.5t88.5 -60t120 -47t131.5 -49t120.5 -59.5t88.5 -86t34 -121q0 -78 -44.5 -144t-121.5 -111t-172.5 -79t-206 -53.5t-214 -28.5t-203.5 -9q-182 0 -355 31t-335 93.5t-301.5 167.5t-235.5 243l93 85
q191 -208 481.5 -332t667.5 -124q90 0 191 6.5t217 24t207 43.5t151.5 70t60.5 99q0 35 -26.5 62.5t-70 45.5t-99 38t-113 37.5t-113 46.5t-99 63t-70 89t-26.5 123q0 71 27.5 137t78 119t131 85t178.5 32q71 0 157 -14t150 -39l2 -149q-24 2 -95 10.5t-118.5 12t-90.5 3.5z
M348 658v-92q-41 10 -97 10q-57 0 -90 -23t-33 -56q0 -21 13.5 -41.5t48 -40t92.5 -25t146 1.5v-90l-425 -51v89l133 16q-80 48 -80 148q0 74 48.5 120.5t138.5 46.5q62 0 105 -13z" />
    <glyph glyph-name="alefAr.fina.calt" horiz-adv-x="517" 
d="M125 1147h180q123 -344 138 -397q126 -380 138 -614l-8 -5v-98l-56 -33h-228q-120 0 -248 26l10 153h430z" />
    <glyph glyph-name="alefAr.fina.short" horiz-adv-x="414" 
d="M125 1283h146v-937q0 -55 14 -89.5t44 -51t62 -21.5t83 -5v-153l-57 -26q-160 0 -226 82.5t-66 237.5v963z" />
    <glyph glyph-name="alefAr.short" horiz-adv-x="481" 
d="M169 1283h143v-1283h-143v1283z" />
    <glyph glyph-name="behAr.fina.ss01" horiz-adv-x="2475" 
d="M2176 678h146v-499h212v-153l-56 -26h-1861q-202 0 -321.5 46t-175.5 135.5t-79 246.5h156q18 -77 48 -124t87.5 -76t137 -39t206.5 -10h1500v499zM1313 -471l-130 131l130 130l131 -130z" />
    <glyph glyph-name="behAr.fina.ss01.ss04" horiz-adv-x="2475" 
d="M2176 678h146v-499h212v-153l-56 -26h-1861q-202 0 -321.5 46t-175.5 135.5t-79 246.5h156q18 -77 48 -124t87.5 -76t137 -39t206.5 -10h1500v499zM1216 -200h195v-158h-195v158z" />
    <glyph glyph-name="behAr.fina.ss04" horiz-adv-x="1756" 
d="M1454 678h146v-499h212v-153l-56 -26h-1183q-489 0 -489 428q0 31 2 63.5t7 72t8 60t10.5 65.5l8.5 51h121q-23 -161 -23 -274q0 -156 85 -221.5t299 -65.5h852v499zM773 -200h195v-158h-195v158z" />
    <glyph glyph-name="behAr.init.ss04" horiz-adv-x="624" 
d="M310 755h146v-755h-459v148l59 31h254v576zM118 -200h194v-158h-194v158z" />
    <glyph glyph-name="behAr.medi.calt" horiz-adv-x="40" 
d="M-174 -471l-131 131l131 130l130 -130zM0 154l56 25h41v-148l-56 -31h-41v154z" />
    <glyph glyph-name="behAr.medi.calt.ss04" horiz-adv-x="40" 
d="M-271 -200h194v-158h-194v158zM0 154l56 25h41v-148l-56 -31h-41v154z" />
    <glyph glyph-name="behAr.medi.ss04" horiz-adv-x="611" 
d="M0 0v138l56 41h256v499h146v-499h213v-153l-57 -26h-614zM179 -200h195v-158h-195v158z" />
    <glyph glyph-name="behAr.ss01" horiz-adv-x="2426" 
d="M2156 755h145v-755h-1684q-202 0 -321.5 46t-175.5 135.5t-79 246.5h156q18 -77 48 -124t87.5 -76t137 -39t206.5 -10h1480v576zM1262 -471l-130 131l130 130l131 -130z" />
    <glyph glyph-name="behAr.ss01.ss04" horiz-adv-x="2426" 
d="M2156 755h145v-755h-1684q-202 0 -321.5 46t-175.5 135.5t-79 246.5h156q18 -77 48 -124t87.5 -76t137 -39t206.5 -10h1480v576zM1165 -200h194v-158h-194v158z" />
    <glyph glyph-name="behAr.ss04" horiz-adv-x="1743" 
d="M1459 755h146v-755h-1032q-489 0 -489 428q0 31 2 63.5t7 72t8 60t10.5 65.5l8.5 51h121q-23 -161 -23 -274q0 -156 85 -221.5t299 -65.5h857v576zM773 -200h195v-158h-195v158z" />
    <glyph glyph-name="tehMarbutaAr.fina.ss04" horiz-adv-x="1031" 
d="M205 394q0 -79 58.5 -121.5t158.5 -42.5q142 0 302 87v407l-256 -74q-45 -13 -86.5 -33t-83.5 -50.5t-67.5 -75.5t-25.5 -97zM724 1044h141v-680q0 -62 14.5 -100t47 -56t67 -23.5t91.5 -5.5v-123q-2 -27 -17 -41.5t-39 -14.5q-238 0 -292 197q-72 -66 -162.5 -106
t-185.5 -40q-135 0 -221 83t-86 235q0 156 103.5 264t275.5 166l263 87v158zM182 1249v144q167 -16 348 -16h136v-148h-134q-222 0 -350 20z" />
    <glyph glyph-name="tehMarbutaAr.ss04" horiz-adv-x="1008" 
d="M471 691q-123 0 -194.5 -69t-71.5 -189q0 -119 73.5 -185t207.5 -66h277v133q0 189 -75.5 282.5t-216.5 93.5zM479 870q189 0 296.5 -142t107.5 -413v-315h-397q-189 0 -295.5 109.5t-106.5 310.5q0 204 105.5 327t289.5 123zM233 1149v144q167 -16 348 -16h136v-148
h-133q-223 0 -351 20z" />
    <glyph glyph-name="tehAr.fina.ss01" horiz-adv-x="2475" 
d="M2176 678h146v-499h212v-153l-56 -26h-1861q-202 0 -321.5 46t-175.5 135.5t-79 246.5h156q18 -77 48 -124t87.5 -76t137 -39t206.5 -10h1500v499zM1405 617l-130 131l130 128l131 -128zM1147 620l-131 130l131 128l130 -128z" />
    <glyph glyph-name="tehAr.fina.ss01.ss04" horiz-adv-x="2475" 
d="M2176 678h146v-499h212v-153l-56 -26h-1861q-202 0 -321.5 46t-175.5 135.5t-79 246.5h156q18 -77 48 -124t87.5 -76t137 -39t206.5 -10h1500v499zM1034 676v143q157 -15 348 -15h136v-149h-133q-217 0 -351 21z" />
    <glyph glyph-name="tehAr.fina.ss04" horiz-adv-x="1756" 
d="M1454 678h146v-499h212v-153l-56 -26h-1183q-489 0 -489 428q0 31 2 63.5t7 72t8 60t10.5 65.5l8.5 51h121q-23 -161 -23 -274q0 -156 85 -221.5t299 -65.5h852v499zM627 934v144q167 -16 348 -16h136v-148h-133q-223 0 -351 20z" />
    <glyph glyph-name="tehAr.init.ss04" horiz-adv-x="624" 
d="M310 755h146v-755h-459v148l59 31h254v576zM138 1037v143q157 -15 348 -15h136v-149h-133q-217 0 -351 21z" />
    <glyph glyph-name="tehAr.init.wide" horiz-adv-x="642" 
d="M328 755h146v-755h-474v148l56 31h272v576zM269 980l-131 131l131 128l130 -128zM527 978l-130 130l130 128l131 -128z" />
    <glyph glyph-name="tehAr.init.wide.ss04" horiz-adv-x="642" 
d="M328 755h146v-755h-474v148l56 31h272v576zM154 1037v143q157 -15 348 -15h135v-149h-133q-216 0 -350 21z" />
    <glyph glyph-name="tehAr.medi.calt" horiz-adv-x="40" 
d="M-346 986l-130 130l130 128l131 -128l-3 -2l131 128l131 -128l-131 -131l-131 131zM0 154l56 25h41v-148l-56 -31h-41v154z" />
    <glyph glyph-name="tehAr.medi.calt.heh" horiz-adv-x="40" 
d="M-346 773l-130 131l130 128l131 -128l-3 -3l131 128l131 -128l-131 -130l-131 130zM0 154l56 25h41v-148l-56 -31h-41v154z" />
    <glyph glyph-name="tehAr.medi.calt.heh.ss04" horiz-adv-x="40" 
d="M-461 829v144q167 -16 348 -16h136v-148h-133q-223 0 -351 20zM0 154l56 25h41v-148l-56 -31h-41v154z" />
    <glyph glyph-name="tehAr.medi.calt.ss04" horiz-adv-x="40" 
d="M-461 1044v144q167 -16 348 -16h136v-148h-133q-223 0 -351 20zM0 154l56 25h41v-148l-56 -31h-41v154z" />
    <glyph glyph-name="tehAr.medi.ss04" horiz-adv-x="611" 
d="M0 0v138l56 41h256v499h146v-499h213v-153l-57 -26h-614zM141 957v144q167 -16 348 -16h136v-148h-133q-223 0 -351 20z" />
    <glyph glyph-name="tehAr.medi.wide" horiz-adv-x="637" 
d="M0 0v138l56 41h282v499h146v-499h212v-153l-56 -26h-640zM525 899l-131 130l131 128l130 -128zM266 901l-130 131l130 128l131 -128z" />
    <glyph glyph-name="tehAr.medi.wide.ss04" horiz-adv-x="637" 
d="M0 0v138l56 41h282v499h146v-499h212v-153l-56 -26h-640zM154 957v144q167 -16 348 -16h135v-148h-133q-222 0 -350 20z" />
    <glyph glyph-name="tehAr.ss01" horiz-adv-x="2470" 
d="M2156 755h145v-755h-1684q-202 0 -321.5 46t-175.5 135.5t-79 246.5h156q18 -77 48 -124t87.5 -76t137 -39t206.5 -10h1480v576zM1129 607l-131 130l131 128l131 -128l128 128l130 -128l-130 -130l-128 130z" />
    <glyph glyph-name="tehAr.ss01.ss04" horiz-adv-x="2470" 
d="M2156 755h145v-755h-1684q-202 0 -321.5 46t-175.5 135.5t-79 246.5h156q18 -77 48 -124t87.5 -76t137 -39t206.5 -10h1480v576zM1016 666v143q157 -15 348 -15h136v-149h-133q-217 0 -351 21z" />
    <glyph glyph-name="tehAr.ss04" horiz-adv-x="1774" 
d="M1459 755h146v-755h-1032q-489 0 -489 428q0 31 2 63.5t7 72t8 60t10.5 65.5l8.5 51h121q-23 -161 -23 -274q0 -156 85 -221.5t299 -65.5h857v576zM620 934v144q167 -16 348 -16h135v-148h-133q-222 0 -350 20z" />
    <glyph glyph-name="thehAr.fina.ss01" horiz-adv-x="2475" 
d="M2176 678h146v-499h212v-153l-56 -26h-1861q-202 0 -321.5 46t-175.5 135.5t-79 246.5h156q18 -77 48 -124t87.5 -76t137 -39t206.5 -10h1500v499zM1149 620l-130 130l130 128l131 -128zM1408 617l-131 131l131 128l131 -128zM1280 860l-125 128l125 126l125 -126z" />
    <glyph glyph-name="thehAr.fina.ss01.ss04" horiz-adv-x="2475" 
d="M2176 678h146v-499h212v-153l-56 -26h-1861q-202 0 -321.5 46t-175.5 135.5t-79 246.5h156q18 -77 48 -124t87.5 -76t137 -39t206.5 -10h1500v499zM1032 676v143q157 -15 348 -15h136v-149h-134q-216 0 -350 21zM1183 1060h194v-161h-194v161z" />
    <glyph glyph-name="thehAr.fina.ss04" horiz-adv-x="1756" 
d="M1454 678h146v-499h212v-153l-56 -26h-1183q-489 0 -489 428q0 31 2 63.5t7 72t8 60t10.5 65.5l8.5 51h121q-23 -161 -23 -274q0 -156 85 -221.5t299 -65.5h852v499zM625 934v144q167 -16 348 -16h135v-148h-133q-222 0 -350 20zM776 1318h194v-161h-194v161z" />
    <glyph glyph-name="thehAr.init.ss04" horiz-adv-x="624" 
d="M310 755h146v-755h-459v148l59 31h254v576zM136 1037v143q157 -15 348 -15h136v-149h-134q-216 0 -350 21zM287 1421h194v-161h-194v161z" />
    <glyph glyph-name="thehAr.init.wide" horiz-adv-x="642" 
d="M328 755h146v-755h-474v148l56 31h272v576zM269 980l-131 131l131 128l130 -128zM399 1221l-125 128l125 126l126 -126zM530 978l-131 130l131 128l130 -128z" />
    <glyph glyph-name="thehAr.init.wide.ss04" horiz-adv-x="642" 
d="M328 755h146v-755h-474v148l56 31h272v576zM151 1037v143q157 -15 348 -15h136v-149h-133q-217 0 -351 21zM302 1421h195v-161h-195v161z" />
    <glyph glyph-name="thehAr.medi.calt" horiz-adv-x="40" 
d="M-346 986l-130 130l130 128l131 -128l-3 -2l131 128l131 -128l-131 -131l-131 131zM-215 1229l-125 128l125 125l125 -125zM0 154l56 25h41v-148l-56 -31h-41v154z" />
    <glyph glyph-name="thehAr.medi.calt.heh" horiz-adv-x="40" 
d="M-346 773l-130 131l130 128l131 -128l-3 -3l131 128l131 -128l-131 -130l-131 130zM-215 1014l-125 128l125 125l125 -125zM0 154l56 25h41v-148l-56 -31h-41v154z" />
    <glyph glyph-name="thehAr.medi.calt.heh.ss04" horiz-adv-x="40" 
d="M-463 829v144q167 -16 348 -16h135v-148h-133q-222 0 -350 20zM-312 1213h194v-161h-194v161zM0 154l56 25h41v-148l-56 -31h-41v154z" />
    <glyph glyph-name="thehAr.medi.calt.ss04" horiz-adv-x="40" 
d="M-463 1044v144q167 -16 348 -16h135v-148h-133q-222 0 -350 20zM-312 1426h194v-161h-194v161zM0 154l56 25h41v-148l-56 -31h-41v154z" />
    <glyph glyph-name="thehAr.medi.ss04" horiz-adv-x="611" 
d="M0 0v138l56 41h256v499h146v-499h213v-153l-57 -26h-614zM138 957v144q167 -16 348 -16h136v-148h-133q-223 0 -351 20zM289 1341h195v-161h-195v161z" />
    <glyph glyph-name="thehAr.medi.wide" horiz-adv-x="637" 
d="M0 0v138l56 41h282v499h146v-499h212v-153l-56 -26h-640zM527 899l-130 130l130 128l131 -128zM269 901l-131 131l131 128l130 -128zM399 1142l-125 128l125 125l126 -125z" />
    <glyph glyph-name="thehAr.medi.wide.ss04" horiz-adv-x="637" 
d="M0 0v138l56 41h282v499h146v-499h212v-153l-56 -26h-640zM151 957v144q167 -16 348 -16h136v-148h-133q-223 0 -351 20zM302 1341h195v-161h-195v161z" />
    <glyph glyph-name="thehAr.ss01" horiz-adv-x="2470" 
d="M2156 755h145v-755h-1684q-202 0 -321.5 46t-175.5 135.5t-79 246.5h156q18 -77 48 -124t87.5 -76t137 -39t206.5 -10h1480v576zM1132 607l-131 130l131 128l130 -128l128 128l131 -128l-131 -130l-128 130zM1262 850l-125 128l125 125l126 -125z" />
    <glyph glyph-name="thehAr.ss01.ss04" horiz-adv-x="2470" 
d="M2156 755h145v-755h-1684q-202 0 -321.5 46t-175.5 135.5t-79 246.5h156q18 -77 48 -124t87.5 -76t137 -39t206.5 -10h1480v576zM1014 666v143q157 -15 348 -15h136v-149h-134q-216 0 -350 21zM1165 1047h194v-161h-194v161z" />
    <glyph glyph-name="thehAr.ss04" horiz-adv-x="1697" 
d="M1385 755h146v-755h-1032q-489 0 -489 428q0 31 2 63.5t7 72t8 60t10.5 65.5l8.5 51h120q-23 -161 -23 -274q0 -156 85 -221.5t299 -65.5h858v576zM543 934v144q167 -16 348 -16h136v-148h-134q-222 0 -350 20zM694 1318h194v-161h-194v161z" />
    <glyph glyph-name="jeemAr.fina.ss04" horiz-adv-x="1226" 
d="M681 -346q235 0 481 54v-148q-285 -85 -530 -85q-149 0 -263.5 36.5t-185 101.5t-106.5 150t-36 186q0 452 722 686q-54 8 -136 25t-145 26.5t-121 9.5q-146 0 -302 -74v149q128 99 287 99q65 0 141.5 -16.5t137.5 -37t150 -37t177 -16.5h187v-149q-31 -5 -179 -38
q-8 -51 -12 -85.5t-3 -80t11.5 -75.5t33.5 -62t60.5 -51t96 -31t136.5 -12v-153l-59 -26q-105 0 -181.5 24.5t-122 71t-70 113t-25.5 149.5t12 182q-100 -32 -189.5 -70.5t-179.5 -92.5t-154.5 -114t-104.5 -138t-40 -161q0 -67 26.5 -121.5t84.5 -97.5t159.5 -67t241.5 -24
zM507 72h194v-159h-194v159z" />
    <glyph glyph-name="jeemAr.init.ss04" horiz-adv-x="1210" 
d="M0 0v131l56 48q145 0 346.5 49t398.5 120q-36 27 -87.5 75t-92.5 83.5t-94.5 71.5t-120 55.5t-142.5 19.5q-110 0 -190 -21v146q34 17 51.5 24.5t64 18.5t94.5 11q77 0 147.5 -23.5t124.5 -61.5t104.5 -83.5t98 -91t94.5 -83.5t103.5 -61.5t116.5 -23.5h97v-143h-282
q-197 -107 -433 -184t-455 -77zM438 -200h194v-158h-194v158z" />
    <glyph glyph-name="jeemAr.medi.ss04" horiz-adv-x="1118" 
d="M-3 0v131l59 48h238q335 0 518 59q-13 16 -31 44l-138 197q-122 176 -356 176q-53 0 -200 -20v148q127 52 238 52q153 0 265.5 -74t205.5 -213l105 -159q79 -121 134.5 -165.5t139.5 -44.5v-123q0 -56 -56 -56q-67 0 -122.5 35.5t-123.5 120.5q-103 -79 -237.5 -117.5
t-333.5 -38.5h-305zM338 -200h194v-158h-194v158z" />
    <glyph glyph-name="jeemAr.ss04" horiz-adv-x="1205" 
d="M681 -346q235 0 481 54v-148q-285 -85 -530 -85q-149 0 -263.5 36.5t-185 101.5t-106.5 150t-36 186q0 452 722 686q-54 8 -136 25t-145 26.5t-121 9.5q-146 0 -302 -74v149q128 99 287 99q65 0 141.5 -16.5t137.5 -37t150 -37t177 -16.5h187v-149q-72 -13 -151.5 -32.5
t-176 -51.5t-185 -71t-173 -92t-146.5 -112t-100 -134.5t-38 -156.5q0 -67 26.5 -121.5t84.5 -97.5t159.5 -67t241.5 -24zM612 79h194v-158h-194v158z" />
    <glyph glyph-name="khahAr.fina.ss04" horiz-adv-x="1226" 
d="M681 -346q235 0 481 54v-148q-285 -85 -530 -85q-149 0 -263.5 36.5t-185 101.5t-106.5 150t-36 186q0 452 722 686q-54 8 -136 25t-145 26.5t-121 9.5q-146 0 -302 -74v149q128 99 287 99q65 0 141.5 -16.5t137.5 -37t150 -37t177 -16.5h187v-149q-31 -5 -179 -38
q-8 -51 -12 -85.5t-3 -80t11.5 -75.5t33.5 -62t60.5 -51t96 -31t136.5 -12v-153l-59 -26q-105 0 -181.5 24.5t-122 71t-70 113t-25.5 149.5t12 182q-100 -32 -189.5 -70.5t-179.5 -92.5t-154.5 -114t-104.5 -138t-40 -161q0 -67 26.5 -121.5t84.5 -97.5t159.5 -67t241.5 -24
zM422 1290h195v-158h-195v158z" />
    <glyph glyph-name="khahAr.init.ss04" horiz-adv-x="1210" 
d="M0 0v131l56 48q145 0 346.5 49t398.5 120q-36 27 -87.5 75t-92.5 83.5t-94.5 71.5t-120 55.5t-142.5 19.5q-110 0 -190 -21v146q34 17 51.5 24.5t64 18.5t94.5 11q77 0 147.5 -23.5t124.5 -61.5t104.5 -83.5t98 -91t94.5 -83.5t103.5 -61.5t116.5 -23.5h97v-143h-282
q-197 -107 -433 -184t-455 -77zM174 1254h195v-158h-195v158z" />
    <glyph glyph-name="khahAr.medi.ss04" horiz-adv-x="1118" 
d="M-3 0v131l59 48h238q335 0 518 59q-13 16 -31 44l-138 197q-122 176 -356 176q-53 0 -200 -20v148q127 52 238 52q153 0 265.5 -74t205.5 -213l105 -159q79 -121 134.5 -165.5t139.5 -44.5v-123q0 -56 -56 -56q-67 0 -122.5 35.5t-123.5 120.5q-103 -79 -237.5 -117.5
t-333.5 -38.5h-305zM220 1254h195v-158h-195v158z" />
    <glyph glyph-name="khahAr.ss04" horiz-adv-x="1205" 
d="M681 -346q235 0 481 54v-148q-285 -85 -530 -85q-149 0 -263.5 36.5t-185 101.5t-106.5 150t-36 186q0 452 722 686q-54 8 -136 25t-145 26.5t-121 9.5q-146 0 -302 -74v149q128 99 287 99q65 0 141.5 -16.5t137.5 -37t150 -37t177 -16.5h187v-149q-72 -13 -151.5 -32.5
t-176 -51.5t-185 -71t-173 -92t-146.5 -112t-100 -134.5t-38 -156.5q0 -67 26.5 -121.5t84.5 -97.5t159.5 -67t241.5 -24zM410 1290h194v-158h-194v158z" />
    <glyph glyph-name="thalAr.fina.ss04" horiz-adv-x="906" 
d="M261 814l56 143q66 -13 136 -46l51 -28q277 -139 277 -471v-233h184v-138q0 -18 -18 -29.5t-38 -11.5h-620q-122 0 -248 26v153h612q0 59 -1 96t-4 86t-9.5 81t-17 71.5t-27.5 67.5t-40.5 58t-55.5 54.5t-73 46.5l-38 20q-64 34 -126 54zM279 1395h195v-159h-195v159z
" />
    <glyph glyph-name="thalAr.ss04" horiz-adv-x="903" 
d="M261 814l56 143q66 -13 136 -46l51 -28q277 -139 277 -471v-412h-492q-122 0 -248 26v153h612q0 59 -1 96t-4 86t-9.5 81t-17 71.5t-27.5 67.5t-40.5 58t-55.5 54.5t-73 46.5l-38 20q-64 34 -126 54zM266 1395h195v-159h-195v159z" />
    <glyph glyph-name="rehAr.fina.beh" horiz-adv-x="1024" 
d="M730 753h140v-397q0 -55 14 -91t43.5 -54.5t65 -25t87.5 -6.5v-159l-53 -20q-297 0 -297 338v31h-392v-279q0 -112 -18 -201.5t-55.5 -159t-102 -107.5t-152.5 -39q-66 0 -128.5 16t-83.5 30l7 148q78 -20 175 -20q56 0 91.5 10.5t65 40.5t42.5 90.5t13 155.5v699h146
v-221h392v221z" />
    <glyph glyph-name="rehAr.fina.calt" horiz-adv-x="942" 
d="M-202 -412v148q78 -20 182 -20q56 0 91.5 10.5t65 40.5t42.5 90.5t13 155.5v576h596v-249q0 -95 51.5 -128t158.5 -33v-159l-53 -20q-297 0 -297 320v105h-310v-376q0 -112 -18 -201.5t-55.5 -159t-102 -107.5t-152.5 -39q-66 0 -128.5 16t-83.5 30z" />
    <glyph glyph-name="zainAr.fina.beh" horiz-adv-x="1024" 
d="M730 753h140v-397q0 -55 14 -91t43.5 -54.5t65 -25t87.5 -6.5v-159l-53 -20q-297 0 -297 338v31h-392v-279q0 -112 -18 -201.5t-55.5 -159t-102 -107.5t-152.5 -39q-66 0 -128.5 16t-83.5 30l7 148q78 -20 175 -20q56 0 91.5 10.5t65 40.5t42.5 90.5t13 155.5v699h146
v-221h392v221zM274 968l-131 130l131 133l130 -133z" />
    <glyph glyph-name="zainAr.fina.beh.ss04" horiz-adv-x="1024" 
d="M730 753h140v-397q0 -55 14 -91t43.5 -54.5t65 -25t87.5 -6.5v-159l-53 -20q-297 0 -297 338v31h-392v-279q0 -112 -18 -201.5t-55.5 -159t-102 -107.5t-152.5 -39q-66 0 -128.5 16t-83.5 30l7 148q78 -20 175 -20q56 0 91.5 10.5t65 40.5t42.5 90.5t13 155.5v699h146
v-221h392v221zM177 1172h194v-158h-194v158z" />
    <glyph glyph-name="zainAr.fina.calt" horiz-adv-x="942" 
d="M-202 -412v148q78 -20 182 -20q56 0 91.5 10.5t65 40.5t42.5 90.5t13 155.5v576h596v-249q0 -95 51.5 -128t158.5 -33v-159l-53 -20q-297 0 -297 320v105h-310v-376q0 -112 -18 -201.5t-55.5 -159t-102 -107.5t-152.5 -39q-66 0 -128.5 16t-83.5 30zM271 804l-130 130
l130 134l131 -134z" />
    <glyph glyph-name="zainAr.fina.calt.ss04" horiz-adv-x="942" 
d="M-202 -412v148q78 -20 182 -20q56 0 91.5 10.5t65 40.5t42.5 90.5t13 155.5v576h596v-249q0 -95 51.5 -128t158.5 -33v-159l-53 -20q-297 0 -297 320v105h-310v-376q0 -112 -18 -201.5t-55.5 -159t-102 -107.5t-152.5 -39q-66 0 -128.5 16t-83.5 30zM174 1009h195v-159
h-195v159z" />
    <glyph glyph-name="zainAr.fina.ss04" horiz-adv-x="494" 
d="M-202 -433v149q87 -21 184 -21q56 0 91.5 10.5t65 40.5t43 90t13.5 154v650h145v-461h210v-153l-56 -26h-156q-2 -106 -20.5 -190.5t-56.5 -150t-101.5 -101.5t-149.5 -37q-64 0 -125.5 16t-86.5 30zM174 1057h195v-158h-195v158z" />
    </font>
</defs>
</svg>
